×

¿Problemas para descargar con Mozilla, EDGE? Deshabilita la opción "Abrir vinculos en una pestaña nueva" tal como lo muestra ésta imagen.

Dragon Ball GT El legado de un héroe (1997) REMUX 1080p Latino – CMHDD

346 vistas

Información de Dragon Ball GT El legado de un héroe (1997) REMUX 1080p Latino – CMHDD

Datos de la película

  • Calidad: Full 1080p
  • Audio: Español Latino AC3 2.0
  • Subtitulos: No
  • Resolución: 1920x1080p
  • Formato: MKV
  • Codec: H.264
  • Encoder: Dracarys
  • Mediainfo: Clic para Mostrar Datos Ver
  • Format                      : Matroska
    Format version              : Version 4
    File size                   : 9.32 GiB
    Duration                    : 44 min 11 s
    Overall bit rate mode       : Constant
    Overall bit rate            : 30.2 Mb/s
    Movie name                  : Dragon Ball GT: El legado de un héroe (1997) REMUX 1080p Latino - CMHDD
    Encoded date                : UTC 2023-03-14 22:49:30
    Writing application         : mkvmerge v47.0.0 ('Black Flag') 64-bit
    Writing library             : libebml v1.3.10 + libmatroska v1.5.2

    Video
    ID                          : 1
    Format                      : MPEG Video
    Format version              : Version 2
    Format profile              : Main@High
    Format settings             : BVOP
    Format settings, BVOP       : Yes
    Format settings, Matrix     : Default
    Format settings, GOP        : M=3, N=12
    Format settings, picture st : Frame
    Codec ID                    : V_MPEG2
    Codec ID/Info               : MPEG 1 or 2 Video
    Duration                    : 44 min 10 s
    Bit rate mode               : Constant
    Bit rate                    : 30.0 Mb/s
    Width                       : 1 920 pixels
    Height                      : 1 080 pixels
    Display aspect ratio        : 16:9
    Frame rate mode             : Constant
    Frame rate                  : 29.970 (30000/1001) FPS
    Color space                 : YUV
    Chroma subsampling          : 4:2:0
    Bit depth                   : 8 bits
    Scan type                   : Interlaced
    Scan order                  : Top Field First
    Compression mode            : Lossy
    Bits/(Pixel*Frame)          : 0.483
    Time code of first frame    : 00:00:00;00
    Time code source            : Group of pictures header
    GOP, Open/Closed            : Closed
    Stream size                 : 9.26 GiB (99%)
    Default                     : Yes
    Forced                      : No

    Audio
    ID                          : 2
    Format                      : AC-3
    Format/Info                 : Audio Coding 3
    Commercial name             : Dolby Digital
    Codec ID                    : A_AC3
    Duration                    : 44 min 11 s
    Bit rate mode               : Constant
    Bit rate                    : 192 kb/s
    Channel(s)                  : 2 channels
    Channel layout              : L R
    Sampling rate               : 48.0 kHz
    Frame rate                  : 31.250 FPS (1536 SPF)
    Compression mode            : Lossy
    Stream size                 : 60.7 MiB (1%)
    Language                    : Spanish
    Service kind                : Complete Main
    Default                     : Yes
    Forced                      : No

  • Peso: 9.32 GiB

Sinopsis

La historia se sitúa a 100 años después del final de DBGT. La nieta de Goku, Pan, es ahora la abuelita de Goku Jr. (que vendría siendo el tatataranieto de Goku) quien tiene un carácter débil y no conoce su gran poder. Al enfermar Pan, Goku Jr. decide armarse de valor y salir a buscar las bolas de dragón. Por el camino se enfrentará a numerosos peligros que le harán descubrir el gran poder que lleva dentro.

Ficha técnica

  • Titulo original: ドラゴンボールGT 悟空外伝! 勇気の証しは四星球
  • Fecha de lanzamiento: 26-03-1997 (Japan)
  • Director: Osamu Kasai
  • Género: Animación, Familia, Fantasía

Video trailer de la película

Enlaces de descarga

Rip de Bluray

Descargar Dragon Ball GT El legado de un héroe (1997) REMUX 1080p Latino – CMHDD


Aportes de DPeliculasHDmega la pass es:dpeliculashdmega.org Aportes de CinemaniaHD la pass es:cinemaniahdd.com Aportes recientes:cinemaniahdd.net
Guardado en : Animación , Familia , Fantasía

Películas relacionadas

  • Wonka (2023) Full HD 1080p Latino-CMHDD

    Wonka (2023) Full HD 1080p Latino-CMHDD

    2023
    Wonka (2023) Full HD 1080p Latino-CMHDD

    1h 57m 2023

    Descargar Wonka (2023) Full HD 1080p Latino-CMHDD. Basada en el personaje que protagoniza "Charlie y...

    Director: Zoe Morgan

    Género: Comedia

    Actores: Tracy Ifeachor

  • Wonka (2023) 1080p Latino-CMHDD

    Wonka (2023) 1080p Latino-CMHDD

    2023
    Wonka (2023) 1080p Latino-CMHDD

    1h 57m 2023

    Descargar Wonka (2023) 1080p Latino-CMHDD. Basada en el personaje que protagoniza "Charlie y la fábrica...

    Director: Zoe Morgan

    Género: Comedia

    Actores: Tracy Ifeachor

  • Wonka (2023) REMUX 1080p Latino-CMHDD

    Wonka (2023) REMUX 1080p Latino-CMHDD

    2023
    Wonka (2023) REMUX 1080p Latino-CMHDD

    1h 57m 2023

    Descargar Wonka (2023) REMUX 1080p Latino-CMHDD. Basada en el personaje que protagoniza "Charlie y la...

    Director: Zoe Morgan

    Género: Comedia

    Actores: Tracy Ifeachor

descargar Dragon Ball GT El legado de un héroe (1997) REMUX 1080p Latino – CMHDD Full 1080p 1080p gratis, Dragon Ball GT El legado de un héroe (1997) REMUX 1080p Latino – CMHDD Full 1080p mega 1 link, Dragon Ball GT El legado de un héroe (1997) REMUX 1080p Latino – CMHDD Full 1080p pelicula completa, descargar Dragon Ball GT El legado de un héroe (1997) REMUX 1080p Latino – CMHDD Full 1080p gratis en mega.

Dragon Ball GT El legado de un héroe (1997) REMUX 1080p Latino – CMHDD pelicula full hd, Dragon Ball GT El legado de un héroe (1997) REMUX 1080p Latino – CMHDD mega latino, Dragon Ball GT El legado de un héroe (1997) REMUX 1080p Latino – CMHDD 4k latino, Dragon Ball GT El legado de un héroe (1997) REMUX 1080p Latino – CMHDD pelicula completa, Dragon Ball GT El legado de un héroe (1997) REMUX 1080p Latino – CMHDD descargar gratis, descargar Dragon Ball GT El legado de un héroe (1997) REMUX 1080p Latino – CMHDD pelicula latino, Dragon Ball GT El legado de un héroe (1997) REMUX 1080p Latino – CMHDD 1 link mega, Dragon Ball GT El legado de un héroe (1997) REMUX 1080p Latino – CMHDD 1 link google drive, Dragon Ball GT El legado de un héroe (1997) REMUX 1080p Latino – CMHDD hd 1080p latino.
Comentarios 0