×

¿Problemas para descargar con Mozilla, EDGE? Deshabilita la opción "Abrir vinculos en una pestaña nueva" tal como lo muestra ésta imagen.

Dragon Ball Aventura mística (1988) REMUX 1080p Latino – CMHDD

251 vistas

Información de Dragon Ball Aventura mística (1988) REMUX 1080p Latino – CMHDD

Datos de la película

  • Calidad: Full 1080p
  • Audio: Español Latino AC3 2.0
  • Subtitulos: No
  • Resolución: 1920x1080p
  • Formato: MKV
  • Codec: H.264
  • Encoder: Dracarys
  • Mediainfo: Clic para Mostrar Datos Ver
  • Format                      : Matroska
    Format version              : Version 4
    File size                   : 9.69 GiB
    Duration                    : 45 min 55 s
    Overall bit rate mode       : Constant
    Overall bit rate            : 30.2 Mb/s
    Movie name                  : Dragon Ball: Aventura mística (1988) REMUX 1080p Latino - CMHDD
    Encoded date                : UTC 2023-03-14 22:45:45
    Writing application         : mkvmerge v47.0.0 ('Black Flag') 64-bit
    Writing library             : libebml v1.3.10 + libmatroska v1.5.2

    Video
    ID                          : 1
    Format                      : MPEG Video
    Format version              : Version 2
    Format profile              : Main@High
    Format settings             : BVOP
    Format settings, BVOP       : Yes
    Format settings, Matrix     : Default
    Format settings, GOP        : M=3, N=12
    Codec ID                    : V_MPEG2
    Codec ID/Info               : MPEG 1 or 2 Video
    Duration                    : 45 min 55 s
    Bit rate mode               : Constant
    Bit rate                    : 30.0 Mb/s
    Width                       : 1 920 pixels
    Height                      : 1 080 pixels
    Display aspect ratio        : 16:9
    Frame rate mode             : Constant
    Frame rate                  : 23.976 (24000/1001) FPS
    Color space                 : YUV
    Chroma subsampling          : 4:2:0
    Bit depth                   : 8 bits
    Scan type                   : Progressive
    Compression mode            : Lossy
    Bits/(Pixel*Frame)          : 0.603
    Time code of first frame    : 00:00:00:00
    Time code source            : Group of pictures header
    GOP, Open/Closed            : Closed
    Stream size                 : 9.62 GiB (99%)
    Default                     : Yes
    Forced                      : No

    Audio
    ID                          : 2
    Format                      : AC-3
    Format/Info                 : Audio Coding 3
    Commercial name             : Dolby Digital
    Codec ID                    : A_AC3
    Duration                    : 45 min 55 s
    Bit rate mode               : Constant
    Bit rate                    : 192 kb/s
    Channel(s)                  : 2 channels
    Channel layout              : L R
    Sampling rate               : 48.0 kHz
    Frame rate                  : 31.250 FPS (1536 SPF)
    Compression mode            : Lossy
    Stream size                 : 63.1 MiB (1%)
    Language                    : Spanish
    Service kind                : Complete Main
    Default                     : Yes
    Forced                      : No

  • Peso: 9.69 GiB

Sinopsis

Después de haber terminado su entrenamiento con el maestro Roshi, Goku y Krilín participan en un torneo de artes marciales organizado por el rey Chaoz, quien tiene bajo su mando a varios integrantes de la armada de la patrulla roja. Mientras tanto, el consejero del emperador está intentando reunir las 7 bolas de dragón, y para ello cuenta con la ayuda de Tao Pai Pai y Ten Shin Han.

Ficha técnica

Video trailer de la película

Enlaces de descarga

Rip de Bluray

Descargar Dragon Ball Aventura mística (1988) REMUX 1080p Latino – CMHDD


Aportes de DPeliculasHDmega la pass es:dpeliculashdmega.org Aportes de CinemaniaHD la pass es:cinemaniahdd.com Aportes recientes:cinemaniahdd.net
Guardado en : Acción , Animación

Películas relacionadas

descargar Dragon Ball Aventura mística (1988) REMUX 1080p Latino – CMHDD Full 1080p 1080p gratis, Dragon Ball Aventura mística (1988) REMUX 1080p Latino – CMHDD Full 1080p mega 1 link, Dragon Ball Aventura mística (1988) REMUX 1080p Latino – CMHDD Full 1080p pelicula completa, descargar Dragon Ball Aventura mística (1988) REMUX 1080p Latino – CMHDD Full 1080p gratis en mega.

Dragon Ball Aventura mística (1988) REMUX 1080p Latino – CMHDD pelicula full hd, Dragon Ball Aventura mística (1988) REMUX 1080p Latino – CMHDD mega latino, Dragon Ball Aventura mística (1988) REMUX 1080p Latino – CMHDD 4k latino, Dragon Ball Aventura mística (1988) REMUX 1080p Latino – CMHDD pelicula completa, Dragon Ball Aventura mística (1988) REMUX 1080p Latino – CMHDD descargar gratis, descargar Dragon Ball Aventura mística (1988) REMUX 1080p Latino – CMHDD pelicula latino, Dragon Ball Aventura mística (1988) REMUX 1080p Latino – CMHDD 1 link mega, Dragon Ball Aventura mística (1988) REMUX 1080p Latino – CMHDD 1 link google drive, Dragon Ball Aventura mística (1988) REMUX 1080p Latino – CMHDD hd 1080p latino.
Comentarios 0