×

¿Problemas para descargar con Mozilla, EDGE? Deshabilita la opción "Abrir vinculos en una pestaña nueva" tal como lo muestra ésta imagen.

Drag Me to Hell (2009) [EXTENDED] REMUX 1080p Latino – CMHDD

148 vistas

Información de Drag Me to Hell (2009) [EXTENDED] REMUX 1080p Latino – CMHDD

Datos de la película

  • Calidad: Full 1080p
  • Audio: Español Latino DTS 5.1 BLURAY - Ingles DTS 5.1 BLURAY
  • Subtitulos: Español Latino PGS
  • Resolución: 1920x1080p
  • Formato: MKV
  • Codec: H.264
  • Encoder: Dracarys
  • Mediainfo: Clic para Mostrar Datos Ver
  • Format                      : Matroska
    Format version              : Version 4
    File size                   : 18.8 GiB
    Duration                    : 1 h 39 min
    Overall bit rate mode       : Variable
    Overall bit rate            : 27.1 Mb/s
    Movie name                  : Drag Me to Hell (2009) [EXTENDED] REMUX 1080p Latino - CMHDD
    Encoded date                : UTC 2021-07-03 06:22:19
    Writing application         : mkvmerge v56.1.0 ('My Friend') 64-bit
    Writing library             : libebml v1.4.2 + libmatroska v1.6.4
    Cover                       : Yes
    Attachments                 : cover.jpg

    Video
    ID                          : 1
    ID in the original source m : 4113 (0x1011)
    Format                      : VC-1
    Format profile              : Advanced@L3
    Codec ID                    : V_MS/VFW/FOURCC / WVC1
    Codec ID/Hint               : Microsoft
    Duration                    : 1 h 39 min
    Bit rate                    : 22.4 Mb/s
    Width                       : 1 920 pixels
    Height                      : 1 080 pixels
    Display aspect ratio        : 16:9
    Frame rate mode             : Constant
    Frame rate                  : 23.976 (24000/1001) FPS
    Color space                 : YUV
    Chroma subsampling          : 4:2:0
    Bit depth                   : 8 bits
    Scan type                   : Progressive
    Compression mode            : Lossy
    Bits/(Pixel*Frame)          : 0.451
    Stream size                 : 15.5 GiB (83%)
    Default                     : Yes
    Forced                      : No
    Original source medium      : Blu-ray

    Audio #1
    ID                          : 2
    ID in the original source m : 4352 (0x1100)
    Format                      : DTS XLL
    Format/Info                 : Digital Theater Systems
    Commercial name             : DTS-HD Master Audio
    Codec ID                    : A_DTS
    Duration                    : 1 h 39 min
    Bit rate mode               : Variable
    Bit rate                    : 3 905 kb/s
    Channel(s)                  : 6 channels
    Channel layout              : C L R Ls Rs LFE
    Sampling rate               : 48.0 kHz
    Frame rate                  : 93.750 FPS (512 SPF)
    Bit depth                   : 24 bits
    Compression mode            : Lossless
    Stream size                 : 2.70 GiB (14%)
    Language                    : English
    Default                     : No
    Forced                      : No
    Original source medium      : Blu-ray

    Audio #2
    ID                          : 3
    ID in the original source m : 4354 (0x1102)
    Format                      : DTS
    Format/Info                 : Digital Theater Systems
    Codec ID                    : A_DTS
    Duration                    : 1 h 39 min
    Bit rate mode               : Constant
    Bit rate                    : 768 kb/s
    Channel(s)                  : 6 channels
    Channel layout              : C L R Ls Rs LFE
    Sampling rate               : 48.0 kHz
    Frame rate                  : 93.750 FPS (512 SPF)
    Bit depth                   : 24 bits
    Compression mode            : Lossy
    Stream size                 : 544 MiB (3%)
    Language                    : Spanish
    Default                     : Yes
    Forced                      : No
    Original source medium      : Blu-ray

    Text #1
    ID                          : 4
    ID in the original source m : 4609 (0x1201)
    Format                      : PGS
    Muxing mode                 : zlib
    Codec ID                    : S_HDMV/PGS
    Codec ID/Info               : Picture based subtitle format used on BDs/HD-DVDs
    Duration                    : 1 h 29 min
    Bit rate                    : 21.8 kb/s
    Count of elements           : 1622
    Stream size                 : 14.0 MiB (0%)
    Language                    : Spanish
    Default                     : No
    Forced                      : No
    Original source medium      : Blu-ray

    Text #2
    ID                          : 5
    ID in the original source m : 4611 (0x1203)
    Format                      : PGS
    Muxing mode                 : zlib
    Codec ID                    : S_HDMV/PGS
    Codec ID/Info               : Picture based subtitle format used on BDs/HD-DVDs
    Duration                    : 1 h 20 min
    Bit rate                    : 184 b/s
    Count of elements           : 14
    Stream size                 : 109 KiB (0%)
    Language                    : Spanish
    Default                     : Yes
    Forced                      : No
    Original source medium      : Blu-ray

    Menu
    00:00:00.000                : Chapter 01
    00:03:21.743                : Chapter 02
    00:05:39.547                : Chapter 03
    00:07:55.725                : Chapter 04
    00:09:55.469                : Chapter 05
    00:10:41.599                : Chapter 06
    00:14:15.271                : Chapter 07
    00:16:05.547                : Chapter 08
    00:16:39.873                : Chapter 09
    00:18:20.766                : Chapter 10
    00:19:32.129                : Chapter 11
    00:20:49.498                : Chapter 12
    00:22:36.772                : Chapter 13
    00:24:23.211                : Chapter 14
    00:26:31.840                : Chapter 15
    00:30:12.852                : Chapter 16
    00:33:51.779                : Chapter 17
    00:35:48.729                : Chapter 18
    00:38:10.413                : Chapter 19
    00:40:03.734                : Chapter 20
    00:40:38.519                : Chapter 21
    00:42:48.190                : Chapter 22
    00:44:29.458                : Chapter 23
    00:45:48.746                : Chapter 24
    00:49:34.680                : Chapter 25
    00:51:34.758                : Chapter 26
    00:56:26.841                : Chapter 27
    00:59:12.924                : Chapter 28
    01:00:21.200                : Chapter 29
    01:02:01.843                : Chapter 30
    01:02:36.377                : Chapter 31
    01:04:58.352                : Chapter 32
    01:07:03.477                : Chapter 33
    01:10:55.334                : Chapter 34
    01:13:34.701                : Chapter 35
    01:18:13.647                : Chapter 36
    01:19:57.918                : Chapter 37
    01:21:39.019                : Chapter 38
    01:25:47.100                : Chapter 39
    01:26:44.324                : Chapter 40
    01:29:59.268                : Chapter 41
    01:32:46.978                : Chapter 42
    01:34:10.603                : Chapter 43

  • Peso: 18.8 GiB

Sinopsis

La joven Christine Brown, ambiciosa apoderada de un banco de Los Ángeles, sale con un hombre encantador, el profesor Clay Dalton. El trabajo de Christine consiste en conceder préstamos hipotecarios. Un día la señora Ganush, una misteriosa anciana, va al banco para pedirle una moratoria, pero Christine se la niega y la señora Ganush pierde su casa. La anciana decide entonces vengarse lanzándole una maldición que convierte su vida en un infierno. Ante la incomprensión de su escéptico novio, Christine busca la ayuda de un vidente para salvar su alma de una condenación eterna. Intentando ayudarla a recobrar una vida normal, el vidente la guía en una frenética carrera para conjurar el hechizo. Pero las fuerzas del mal se acercan y Christine debe enfrentarse a algo impensable.

Ficha técnica

Video trailer de la película

Enlaces de descarga

Rip de Bluray

Descargar Drag Me to Hell (2009) [EXTENDED] REMUX 1080p Latino – CMHDD


Aportes de DPeliculasHDmega la pass es:dpeliculashdmega.org Aportes de CinemaniaHD la pass es:cinemaniahdd.com
Guardado en : Suspenso , Terror

Películas relacionadas

  • La Máquina infernal (2022) WEB-DL 1080p Latino

    La Máquina infernal (2022) WEB-DL 1080p Latino

    2022
    La Máquina infernal (2022) WEB-DL 1080p Latino

    1h 47m 2022

    Descargar La Máquina infernal (2022) WEB-DL 1080p Latino. Un fan obsesivo saca de su escondite al solitario...

    Director: Andrew Hunt

    Género: Suspenso

    Actores: Rocco Salata

  • Borrego: Sal Del Camino (2022) HD 1080p Latino

    Borrego: Sal Del Camino (2022) HD 1080p Latino

    2022
    Borrego: Sal Del Camino (2022) HD 1080p Latino

    1h 42m 2022

    Descargar Borrego: Sal Del Camino (2022) HD 1080p Latino. Una joven botánica se traslada a un pequeño...

    Director: Jesse Harris

    Género: Crimen

    Actores: Olivia Trujillo

  • Borrego: Sal Del Camino (2022) REMUX 1080p Latino

    Borrego: Sal Del Camino (2022) REMUX 1080p Latino

    2022
    Borrego: Sal Del Camino (2022) REMUX 1080p Latino

    1h 42m 2022

    Descargar Borrego: Sal Del Camino (2022) REMUX 1080p Latino. Una joven botánica se traslada a un pequeño...

    Director: Jesse Harris

    Género: Crimen

    Actores: Olivia Trujillo

  • Tren Bala (2022) WEB-DL 4K UHD HDR Latino

    Tren Bala (2022) WEB-DL 4K UHD HDR Latino

    2022
    Tren Bala (2022) WEB-DL 4K UHD HDR Latino

    2h 7m 2022

    Descargar Tren Bala (2022) WEB-DL 4K UHD HDR Latino. El desafortunado asesino "Catarina" está decidido...

    Director: Paul Barry

    Género: 4K HDR

    Actores: Zooey Miyoshi

descargar Drag Me to Hell (2009) [EXTENDED] REMUX 1080p Latino – CMHDD Full 1080p 1080p gratis, Drag Me to Hell (2009) [EXTENDED] REMUX 1080p Latino – CMHDD Full 1080p mega 1 link, Drag Me to Hell (2009) [EXTENDED] REMUX 1080p Latino – CMHDD Full 1080p pelicula completa, descargar Drag Me to Hell (2009) [EXTENDED] REMUX 1080p Latino – CMHDD Full 1080p gratis en mega.

Drag Me to Hell (2009) [EXTENDED] REMUX 1080p Latino – CMHDD pelicula full hd, Drag Me to Hell (2009) [EXTENDED] REMUX 1080p Latino – CMHDD mega latino, Drag Me to Hell (2009) [EXTENDED] REMUX 1080p Latino – CMHDD 4k latino, Drag Me to Hell (2009) [EXTENDED] REMUX 1080p Latino – CMHDD pelicula completa, Drag Me to Hell (2009) [EXTENDED] REMUX 1080p Latino – CMHDD descargar gratis, descargar Drag Me to Hell (2009) [EXTENDED] REMUX 1080p Latino – CMHDD pelicula latino, Drag Me to Hell (2009) [EXTENDED] REMUX 1080p Latino – CMHDD 1 link mega, Drag Me to Hell (2009) [EXTENDED] REMUX 1080p Latino – CMHDD 1 link google drive, Drag Me to Hell (2009) [EXTENDED] REMUX 1080p Latino – CMHDD hd 1080p latino.
Comentarios 0