Drácula, la Historia jamás contada (2014) Full 1080p Latino

1.476 vistas
1 estrella2 estrellas3 estrellas4 estrellas5 estrellas (4 votos, promedio: 4,75 de 5)
Cargando…

Información de Drácula, la Historia jamás contada (2014) Full 1080p Latino

Datos de la película

  • Calidad: Full 1080p
  • Audio: Español Latino DTS 5.1 BLURAY - Ingles DTS 5.1 BLURAY
  • Subtitulos: Español Latino PGS - Ingles PGS
  • Resolución: 1920x1080p
  • Formato: MKV
  • Codec: H.264
  • Encoder: CinefiloCool
  • Mediainfo: Clic para Mostrar Datos Ver
  • Dracula Untold (2014) Full 1080p Latino.mkv
    Format                      : Matroska
    Format version              : Version 4
    File size                   : 6.07 GiB
    Duration                    : 1 h 32 min
    Overall bit rate mode       : Variable
    Overall bit rate            : 9 428 kb/s
    Movie name                  : CinemaniaHDD.Net
    Encoded date                : UTC 2018-12-13 06:39:47
    Writing application         : mkvmerge v28.2.0 ('The Awakening') 64-bit
    Writing library             : libebml v1.3.6 + libmatroska v1.4.9

    Video
    ID                          : 1
    Format                      : AVC
    Format/Info                 : Advanced Video Codec
    Format profile              : [email protected]
    Format settings             : CABAC / 4 Ref Frames
    Format settings, CABAC      : Yes
    Format settings, ReFrames   : 4 frames
    Codec ID                    : V_MPEG4/ISO/AVC
    Duration                    : 1 h 32 min
    Bit rate                    : 5 103 kb/s
    Width                       : 1 920 pixels
    Height                      : 1 080 pixels
    Display aspect ratio        : 16:9
    Frame rate mode             : Constant
    Frame rate                  : 23.976 (24000/1001) FPS
    Color space                 : YUV
    Chroma subsampling          : 4:2:0
    Bit depth                   : 8 bits
    Scan type                   : Progressive
    Bits/(Pixel*Frame)          : 0.103
    Stream size                 : 3.28 GiB (54%)
    Title                       : Full HD1080p [Bluray]
    Writing library             : x264 core 155 r2901 7d0ff22
    Encoding settings           : cabac=1 / ref=4 / deblock=1:0:0 / analyse=0x3:0x133 / me=esa / subme=10 / psy=1 / psy_rd=1.00:0.00 / mixed_ref=1 / me_range=24 / chroma_me=1 / trellis=2 / 8x8dct=1 / cqm=0 / deadzone=21,11 / fast_pskip=1 / chroma_qp_offset=-2 / threads=34 / lookahead_threads=5 / sliced_threads=0 / nr=0 / decimate=1 / interlaced=0 / bluray_compat=0 / constrained_intra=0 / bframes=8 / b_pyramid=2 / b_adapt=2 / b_bias=0 / direct=3 / weightb=1 / open_gop=0 / weightp=2 / keyint=240 / keyint_min=24 / scenecut=40 / intra_refresh=0 / rc_lookahead=60 / rc=crf / mbtree=1 / crf=20.0 / qcomp=0.60 / qpmin=0 / qpmax=69 / qpstep=4 / vbv_maxrate=62500 / vbv_bufsize=78125 / crf_max=0.0 / nal_hrd=none / filler=0 / ip_ratio=1.40 / aq=1:1.00
    Default                     : Yes
    Forced                      : No
    Color range                 : Limited
    Color primaries             : BT.709
    Transfer characteristics    : BT.709
    Matrix coefficients         : BT.709

    Audio #1
    ID                          : 2
    Format                      : DTS
    Format/Info                 : Digital Theater Systems
    Codec ID                    : A_DTS
    Duration                    : 1 h 32 min
    Bit rate mode               : Constant
    Bit rate                    : 768 kb/s
    Channel(s)                  : 6 channels
    Channel layout              : C L R Ls Rs LFE
    Sampling rate               : 48.0 kHz
    Frame rate                  : 93.750 FPS (512 SPF)
    Bit depth                   : 24 bits
    Compression mode            : Lossy
    Stream size                 : 506 MiB (8%)
    Title                       : DTS_5.1_Bluray_Esp
    Language                    : Spanish
    Default                     : Yes
    Forced                      : Yes

    Audio #2
    ID                          : 3
    Format                      : DTS XLL
    Format/Info                 : Digital Theater Systems
    Commercial name             : DTS-HD Master Audio
    Codec ID                    : A_DTS
    Duration                    : 1 h 32 min
    Bit rate mode               : Variable
    Bit rate                    : 3 539 kb/s
    Channel(s)                  : 6 channels
    Channel layout              : C L R Ls Rs LFE
    Sampling rate               : 48.0 kHz
    Frame rate                  : 93.750 FPS (512 SPF)
    Bit depth                   : 24 bits
    Compression mode            : Lossless
    Stream size                 : 2.28 GiB (38%)
    Title                       : DTS-MA_5.1_Bluray_Eng
    Language                    : English
    Default                     : No
    Forced                      : No

    Text #1
    ID                          : 4
    Format                      : PGS
    Muxing mode                 : zlib
    Codec ID                    : S_HDMV/PGS
    Codec ID/Info               : Picture based subtitle format used on BDs/HD-DVDs
    Duration                    : 12 min 20 s
    Bit rate                    : 2 521 b/s
    Count of elements           : 22
    Stream size                 : 228 KiB (0%)
    Title                       : Sub_Forzados [PGS]
    Language                    : Spanish
    Default                     : Yes
    Forced                      : Yes

    Text #2
    ID                          : 5
    Format                      : PGS
    Muxing mode                 : zlib
    Codec ID                    : S_HDMV/PGS
    Codec ID/Info               : Picture based subtitle format used on BDs/HD-DVDs
    Duration                    : 1 h 24 min
    Bit rate                    : 20.3 kb/s
    Count of elements           : 1478
    Stream size                 : 12.2 MiB (0%)
    Title                       : Sub_Esp [PGS]
    Language                    : Spanish
    Default                     : No
    Forced                      : No

    Text #3
    ID                          : 6
    Format                      : PGS
    Muxing mode                 : zlib
    Codec ID                    : S_HDMV/PGS
    Codec ID/Info               : Picture based subtitle format used on BDs/HD-DVDs
    Duration                    : 1 h 24 min
    Bit rate                    : 26.0 kb/s
    Count of elements           : 1913
    Stream size                 : 15.6 MiB (0%)
    Title                       : Sub_Eng [PGS]
    Language                    : English
    Default                     : No
    Forced                      : No

    Menu
    00:00:00.000                : :Chapter 1
    00:04:07.289                : :Chapter 2
    00:07:20.690                : :Chapter 3
    00:11:32.901                : :Chapter 4
    00:16:30.823                : :Chapter 5
    00:22:53.664                : :Chapter 6
    00:30:23.488                : :Chapter 7
    00:34:16.805                : :Chapter 8
    00:38:57.168                : :Chapter 9
    00:43:00.453                : :Chapter 10
    00:47:03.738                : :Chapter 11
    00:53:16.860                : :Chapter 12
    00:57:39.957                : :Chapter 13
    01:00:47.435                : :Chapter 14
    01:04:30.033                : :Chapter 15
    01:09:12.190                : :Chapter 16
    01:12:47.697                : :Chapter 17
    01:17:12.002                : :Chapter 18
    01:21:52.658                : :Chapter 19
    01:25:02.598                : :Chapter 20

  • Peso: 6.07 GiB

Sinopsis

Descargar Drácula, la Historia jamás contada (2014) Full 1080p Latino, Mega, Google Drive, Torrent. Los orígenes del mito se revelan en esta película ambientada en los años de reinado de Vlad Tepes, príncipe de Rumania que inspiró la leyenda por sus peculiares métodos para provocar el miedo entre su población y sus enemigos. Una mezcla de mitología e historia para recoger cómo se transformó el sanguinario emperador en el primer vampiro de la historia. Uno de los más terribles y sádicos personajes de Europa que inspiró la clásica obra literaria de Bram Stoker mezclando el terror sobrenatural, las leyendas y pinceladas de amor, para cautivar por completo.

Ficha técnica

Video trailer de la película

Enlaces de descarga

Rip de Bluray

Descargar Drácula, la Historia jamás contada (2014) Full 1080p Latino




Aportes de DPeliculasHDmega la pass es:dpeliculashdmega.org Aportes de CinemaniaHD la pass es:cinemaniahdd.com

Películas relacionadas

  • The mule (2018) WEB-DL 1080p Latino

    2018
    The mule (2018) WEB-DL 1080p Latino

    0.0 1h 56m 2018

    A Earl Stone (Eastwood), un octogenario que está en quiebra, solo, y que se enfrenta a la ejecución...

    Director: Clint Eastwood

    Género: Crimen

    Actores: Victor Rasuk

  • Aquaman (2018) Full HD 1080p Latino

    2018
    Aquaman (2018) Full HD 1080p Latino

    5.0 2h 24m 2018

    Un icono durante más de 70 años, Aquaman (Jason Momoa) es el Rey de los Siete Mares. Este reacio gobernante...

    Director: James Wan

    Género: Acción

    Actores: Yahya Abdul-Mateen II

  • Bumblebee (2018) WEB-DL 1080p Castellano

    2018
    Bumblebee (2018) WEB-DL 1080p Castellano

    3.0 1h 54m 2018

    Sexta entrega de la saga 'Transformers', esta vez centrada en el "hermano pequeño" de los Autobots,...

    Director: Travis Knight

    Género: Acción

    Actores: Yianni Apostolopolous

  • Robin Hood (2018) 4K UHD HDR Latino

    2018
    Robin Hood (2018) 4K UHD HDR Latino

    0.0 1h 56m 2018

    Descargar Robin Hood (2018) 4K UHD HDR Latino, Mega, Google Drive. Cuando el joven Robin Hood (Taron...

    Director: Otto Bathurst

    Género: 4K HDR

    Actores: Yasen Atour

  • Operacion Overlord (2018) 4K UHD HDR Latino

    2018
    Operacion Overlord (2018) 4K UHD HDR Latino

    5.0 1h 50m 2018

    Descargar Operacion Overlord (2018) 4K UHD HDR Latino, Mega, Google Drive. La víspera del Día D, un...

    Director: Roxanne Cuenca

    Género: 4K HDR

    Actores: Wyatt Russell

Comentarios 0