×

¿Problemas para descargar con Mozilla, EDGE? Deshabilita la opción "Abrir vinculos en una pestaña nueva" tal como lo muestra ésta imagen.

Dracula: Mar De Sangre (2023) REMUX 1080p Latino

228 vistas

Información de Dracula: Mar De Sangre (2023) REMUX 1080p Latino

Datos de la película

  • Calidad: Full 1080p
  • Audio: Se especifica abajo de la Sinopsis
  • Subtitulos: Español Latino PGS - Ingles PGS
  • Resolución: 1920x1080p
  • Formato: MKV
  • Codec: H.264
  • Encoder: Melkor
  • Mediainfo: Clic para Mostrar Datos Ver
  • The Last Voyage of the Demeter (2023) REMUX 1080p Latino.mkv
    Format                      : Matroska
    Format version              : Version 4
    File size                   : 29.2 GiB
    Duration                    : 1 h 58 min
    Overall bit rate mode       : Variable
    Overall bit rate            : 35.2 Mb/s
    Movie name                  : The Last Voyage of the Demeter (2023) CinemaniaHDD.Net
    Encoded date                : UTC 2023-10-18 08:28:54
    Writing application         : mkvmerge v56.1.0 ('My Friend') 64-bit
    Writing library             : libebml v1.4.2 + libmatroska v1.6.4
    Attachments                 : CINEMANIAHD.png
    Site                        : CinemaniaHDD.Net
    Uploader                    : Melkor

    Video
    ID                          : 1
    ID in the original source m : 4113 (0x1011)
    Format                      : AVC
    Format/Info                 : Advanced Video Codec
    Format profile              : High@L4.1
    Format settings             : CABAC / 2 Ref Frames
    Format settings, CABAC      : Yes
    Format settings, Reference  : 2 frames
    Format settings, GOP        : M=1, N=10
    Codec ID                    : V_MPEG4/ISO/AVC
    Duration                    : 1 h 58 min
    Bit rate mode               : Variable
    Bit rate                    : 29.9 Mb/s
    Width                       : 1 920 pixels
    Height                      : 1 080 pixels
    Display aspect ratio        : 16:9
    Frame rate mode             : Constant
    Frame rate                  : 23.976 (24000/1001) FPS
    Color space                 : YUV
    Chroma subsampling          : 4:2:0
    Bit depth                   : 8 bits
    Scan type                   : Progressive
    Bits/(Pixel*Frame)          : 0.601
    Stream size                 : 24.8 GiB (85%)
    Title                       : REMUX HD1080p [CinemaniaHDD]
    Default                     : Yes
    Forced                      : Yes
    Original source medium      : Blu-ray

    Audio #1
    ID                          : 2
    ID in the original source m : 4353 (0x1101)
    Format                      : E-AC-3
    Format/Info                 : Enhanced AC-3
    Commercial name             : Dolby Digital Plus
    Format profile              : Blu-ray Disc
    Codec ID                    : A_EAC3
    Duration                    : 1 h 58 min
    Bit rate mode               : Constant
    Bit rate                    : 768 kb/s
    Channel(s)                  : 8 channels
    Channel layout              : L R C LFE Ls Rs Lb Rb
    Sampling rate               : 48.0 kHz
    Frame rate                  : 31.250 FPS (1536 SPF)
    Compression mode            : Lossy
    Stream size                 : 652 MiB (2%)
    Title                       : Español Latino DDP [CinemaniaHDD]
    Language                    : Spanish
    Service kind                : Complete Main
    Default                     : No
    Forced                      : No
    Original source medium      : Blu-ray

    Audio #2
    ID                          : 3
    ID in the original source m : 4352 (0x1100)
    Format                      : MLP FBA 16-ch
    Format/Info                 : Meridian Lossless Packing FBA with 16-channel presentation
    Commercial name             : Dolby TrueHD with Dolby Atmos
    Codec ID                    : A_TRUEHD
    Duration                    : 1 h 58 min
    Bit rate mode               : Variable
    Bit rate                    : 3 349 kb/s
    Maximum bit rate            : 5 409 kb/s
    Channel(s)                  : 8 channels
    Channel layout              : L R C LFE Ls Rs Lb Rb
    Sampling rate               : 48.0 kHz
    Frame rate                  : 1 200.000 FPS (40 SPF)
    Compression mode            : Lossless
    Stream size                 : 2.78 GiB (10%)
    Title                       : Ingles THD[CinemaniaHDD]
    Language                    : English
    Default                     : No
    Forced                      : No
    Original source medium      : Blu-ray
    Number of dynamic objects   : 11
    Bed channel count           : 1 channel
    Bed channel configuration   : LFE

    Audio #3
    ID                          : 4
    Format                      : AC-3
    Format/Info                 : Audio Coding 3
    Commercial name             : Dolby Digital
    Codec ID                    : A_AC3
    Duration                    : 1 h 58 min
    Bit rate mode               : Constant
    Bit rate                    : 640 kb/s
    Channel(s)                  : 6 channels
    Channel layout              : L R C LFE Ls Rs
    Sampling rate               : 48.0 kHz
    Frame rate                  : 31.250 FPS (1536 SPF)
    Compression mode            : Lossy
    Stream size                 : 543 MiB (2%)
    Title                       : Español Latino AC3 [CinemaniaHDD]
    Language                    : Spanish
    Service kind                : Complete Main
    Default                     : Yes
    Forced                      : Yes

    Audio #4
    ID                          : 5
    ID in the original source m : 4352 (0x1100)
    Format                      : AC-3
    Format/Info                 : Audio Coding 3
    Commercial name             : Dolby Digital
    Codec ID                    : A_AC3
    Duration                    : 1 h 58 min
    Bit rate mode               : Constant
    Bit rate                    : 448 kb/s
    Channel(s)                  : 6 channels
    Channel layout              : L R C LFE Ls Rs
    Sampling rate               : 48.0 kHz
    Frame rate                  : 31.250 FPS (1536 SPF)
    Compression mode            : Lossy
    Stream size                 : 380 MiB (1%)
    Title                       : Ingles AC3 [CinemaniaHDD]
    Language                    : English
    Service kind                : Complete Main
    Default                     : No
    Forced                      : No
    Original source medium      : Blu-ray

    Text #1
    ID                          : 6
    ID in the original source m : 4611 (0x1203)
    Format                      : PGS
    Muxing mode                 : zlib
    Codec ID                    : S_HDMV/PGS
    Codec ID/Info               : Picture based subtitle format used on BDs/HD-DVDs
    Duration                    : 1 h 57 min
    Bit rate                    : 498 b/s
    Count of elements           : 28
    Stream size                 : 427 KiB (0%)
    Title                       : Forzados-PGS [CinemaniaHDD]
    Language                    : Spanish
    Default                     : No
    Forced                      : No
    Original source medium      : Blu-ray

    Text #2
    ID                          : 7
    ID in the original source m : 4609 (0x1201)
    Format                      : PGS
    Muxing mode                 : zlib
    Codec ID                    : S_HDMV/PGS
    Codec ID/Info               : Picture based subtitle format used on BDs/HD-DVDs
    Duration                    : 1 h 57 min
    Bit rate                    : 24.2 kb/s
    Count of elements           : 2204
    Stream size                 : 20.3 MiB (0%)
    Title                       : Español-PGS [CinemaniaHDD]
    Language                    : Spanish
    Default                     : No
    Forced                      : No
    Original source medium      : Blu-ray

    Text #3
    ID                          : 8
    ID in the original source m : 4608 (0x1200)
    Format                      : PGS
    Muxing mode                 : zlib
    Codec ID                    : S_HDMV/PGS
    Codec ID/Info               : Picture based subtitle format used on BDs/HD-DVDs
    Duration                    : 1 h 48 min
    Bit rate                    : 32.2 kb/s
    Count of elements           : 2586
    Stream size                 : 25.0 MiB (0%)
    Title                       : Ingles-PGS [CinemaniaHDD]
    Language                    : English
    Default                     : No
    Forced                      : No
    Original source medium      : Blu-ray

    Text #4
    ID                          : 9
    Format                      : UTF-8
    Codec ID                    : S_TEXT/UTF8
    Codec ID/Info               : UTF-8 Plain Text
    Duration                    : 7 min 4 s
    Bit rate                    : 9 b/s
    Count of elements           : 12
    Stream size                 : 502 Bytes (0%)
    Title                       : Forzados-SRT [CinemaniaHDD]
    Language                    : Spanish
    Default                     : Yes
    Forced                      : Yes

    Text #5
    ID                          : 10
    Format                      : UTF-8
    Codec ID                    : S_TEXT/UTF8
    Codec ID/Info               : UTF-8 Plain Text
    Duration                    : 1 h 56 min
    Bit rate                    : 35 b/s
    Count of elements           : 1096
    Stream size                 : 30.6 KiB (0%)
    Title                       : Español-SRT [CinemaniaHDD]
    Language                    : Spanish
    Default                     : No
    Forced                      : No

    Menu
    00:00:00.000                : Chapter 01
    00:04:09.499                : Chapter 02
    00:08:39.477                : Chapter 03
    00:12:22.116                : Chapter 04
    00:17:12.406                : Chapter 05
    00:24:20.542                : Chapter 06
    00:30:20.568                : Chapter 07
    00:36:52.293                : Chapter 08
    00:43:09.962                : Chapter 09
    00:47:36.937                : Chapter 10
    00:52:56.631                : Chapter 11
    01:00:51.522                : Chapter 12
    01:05:38.142                : Chapter 13
    01:10:35.105                : Chapter 14
    01:17:41.948                : Chapter 15
    01:23:53.194                : Chapter 16
    01:30:24.001                : Chapter 17
    01:38:28.903                : Chapter 18
    01:44:01.276                : Chapter 19
    01:49:23.265                : Chapter 20

  • Peso: 29.2 GiB

Sinopsis

Descargar Dracula: Mar De Sangre (2023) REMUX 1080p Latino. Basado en un solo capítulo, el Captain’s Log, de la clásica novela Drácula de 1897 de Bram Stoker, la historia se desarrolla a bordo de la goleta rusa Demeter, que fue fletada para transportar carga privada (veinticuatro cajas de madera sin marcar) desde Carpatia a Londres. La película detallará los extraños eventos que acontecieron a la tripulación condenada mientras intentan sobrevivir al viaje por el océano, acechados cada noche por una aterradora presencia a bordo del barco. Cuando finalmente llegó cerca del puerto de Whitby, estaba totalmente en ruinas. No había rastro de la tripulación.

Español Latino EAC3 7.1 & Core AC3 5.1 + Ingles THD 7.1 & Core AC3 5.1 

Ficha técnica

Video trailer de la película

Enlaces de descarga

Rip de Bluray

Descargar Dracula: Mar De Sangre (2023) REMUX 1080p Latino




Aportes de DPeliculasHDmega la pass es:dpeliculashdmega.org Aportes de CinemaniaHD la pass es:cinemaniahdd.com Aportes recientes:cinemaniahdd.net
Guardado en : Remux , Suspenso , Terror

Películas relacionadas

descargar Dracula: Mar De Sangre (2023) REMUX 1080p Latino Full 1080p 1080p gratis, Dracula: Mar De Sangre (2023) REMUX 1080p Latino Full 1080p mega 1 link, Dracula: Mar De Sangre (2023) REMUX 1080p Latino Full 1080p pelicula completa, descargar Dracula: Mar De Sangre (2023) REMUX 1080p Latino Full 1080p gratis en mega.

Dracula: Mar De Sangre (2023) REMUX 1080p Latino pelicula full hd, Dracula: Mar De Sangre (2023) REMUX 1080p Latino mega latino, Dracula: Mar De Sangre (2023) REMUX 1080p Latino 4k latino, Dracula: Mar De Sangre (2023) REMUX 1080p Latino pelicula completa, Dracula: Mar De Sangre (2023) REMUX 1080p Latino descargar gratis, descargar Dracula: Mar De Sangre (2023) REMUX 1080p Latino pelicula latino, Dracula: Mar De Sangre (2023) REMUX 1080p Latino 1 link mega, Dracula: Mar De Sangre (2023) REMUX 1080p Latino 1 link google drive, Dracula: Mar De Sangre (2023) REMUX 1080p Latino hd 1080p latino.
Comentarios 0