×

¿Problemas para descargar con Mozilla, EDGE? Deshabilita la opción "Abrir vinculos en una pestaña nueva" tal como lo muestra ésta imagen.

Dracula: Mar De Sangre (2023) PLACEBO Full HD 1080p Latino

189 vistas

Información de Dracula: Mar De Sangre (2023) PLACEBO Full HD 1080p Latino

Datos de la película

  • Calidad: Full 1080p
  • Audio: Se especifica abajo de la Sinopsis
  • Subtitulos: Español Latino PGS - Ingles PGS
  • Resolución: 1920x1080p
  • Formato: MKV
  • Codec: H.264
  • Encoder: Melkor
  • Mediainfo: Clic para Mostrar Datos Ver
  • Dracula Mar De Sangre (2023) PLACEBO 1080p Latino.mkv
    Format                      : Matroska
    Format version              : Version 4
    File size                   : 4.65 GiB
    Duration                    : 1 h 58 min
    Overall bit rate            : 5 607 kb/s
    Movie name                  : The Last Voyage of the Demeter (2023) CinemaniaHDD.Net
    Encoded date                : UTC 2023-10-18 20:38:11
    Writing application         : mkvmerge v56.1.0 ('My Friend') 64-bit
    Writing library             : libebml v1.4.2 + libmatroska v1.6.4
    Attachments                 : CINEMANIAHD.png
    Site                        : CinemaniaHDD.Net
    Uploader                    : Melkor

    Video
    ID                          : 1
    Format                      : AVC
    Format/Info                 : Advanced Video Codec
    Format profile              : High@L4.1
    Format settings             : CABAC / 4 Ref Frames
    Format settings, CABAC      : Yes
    Format settings, Reference  : 4 frames
    Codec ID                    : V_MPEG4/ISO/AVC
    Duration                    : 1 h 58 min
    Bit rate                    : 2 660 kb/s
    Width                       : 1 920 pixels
    Height                      : 1 080 pixels
    Display aspect ratio        : 16:9
    Frame rate mode             : Constant
    Frame rate                  : 23.976 (24000/1001) FPS
    Color space                 : YUV
    Chroma subsampling          : 4:2:0
    Bit depth                   : 8 bits
    Scan type                   : Progressive
    Bits/(Pixel*Frame)          : 0.054
    Stream size                 : 2.20 GiB (47%)
    Title                       : Full HD1080p [CinemaniaHDD]
    Writing library             : x264 core 163 r3059 b684ebe0
    Encoding settings           : cabac=1 / ref=4 / deblock=1:0:0 / analyse=0x3:0x133 / me=tesa / subme=11 / psy=1 / psy_rd=1.00:0.00 / mixed_ref=1 / me_range=24 / chroma_me=1 / trellis=2 / 8x8dct=1 / cqm=0 / deadzone=21,11 / fast_pskip=0 / chroma_qp_offset=-2 / threads=24 / lookahead_threads=6 / sliced_threads=0 / nr=0 / decimate=1 / interlaced=0 / bluray_compat=0 / constrained_intra=0 / bframes=16 / b_pyramid=2 / b_adapt=2 / b_bias=0 / direct=3 / weightb=1 / open_gop=0 / weightp=2 / keyint=240 / keyint_min=24 / scenecut=40 / intra_refresh=0 / rc_lookahead=60 / rc=crf / mbtree=1 / crf=19.0 / qcomp=0.60 / qpmin=0 / qpmax=69 / qpstep=4 / vbv_maxrate=62500 / vbv_bufsize=78125 / crf_max=0.0 / nal_hrd=none / filler=0 / ip_ratio=1.40 / aq=1:1.00
    Default                     : Yes
    Forced                      : Yes
    Color range                 : Limited
    Color primaries             : BT.709
    Transfer characteristics    : BT.709
    Matrix coefficients         : BT.709

    Audio #1
    ID                          : 2
    Format                      : AC-3
    Format/Info                 : Audio Coding 3
    Commercial name             : Dolby Digital
    Codec ID                    : A_AC3
    Duration                    : 1 h 58 min
    Bit rate mode               : Constant
    Bit rate                    : 640 kb/s
    Channel(s)                  : 6 channels
    Channel layout              : L R C LFE Ls Rs
    Sampling rate               : 48.0 kHz
    Frame rate                  : 31.250 FPS (1536 SPF)
    Compression mode            : Lossy
    Stream size                 : 543 MiB (11%)
    Title                       : Español Latino AC3 [CinemaniaHDD]
    Language                    : Spanish
    Service kind                : Complete Main
    Default                     : Yes
    Forced                      : Yes

    Audio #2
    ID                          : 3
    ID in the original source m : 4353 (0x1101)
    Format                      : E-AC-3
    Format/Info                 : Enhanced AC-3
    Commercial name             : Dolby Digital Plus
    Format profile              : Blu-ray Disc
    Codec ID                    : A_EAC3
    Duration                    : 1 h 58 min
    Bit rate mode               : Constant
    Bit rate                    : 768 kb/s
    Channel(s)                  : 8 channels
    Channel layout              : L R C LFE Ls Rs Lb Rb
    Sampling rate               : 48.0 kHz
    Frame rate                  : 31.250 FPS (1536 SPF)
    Compression mode            : Lossy
    Stream size                 : 652 MiB (14%)
    Title                       : Español Latino DDP [CinemaniaHDD]
    Language                    : Spanish
    Service kind                : Complete Main
    Default                     : No
    Forced                      : No
    Original source medium      : Blu-ray

    Audio #3
    ID                          : 4
    Format                      : DTS
    Format/Info                 : Digital Theater Systems
    Codec ID                    : A_DTS
    Duration                    : 1 h 58 min
    Bit rate mode               : Constant
    Bit rate                    : 1 509 kb/s
    Channel(s)                  : 6 channels
    Channel layout              : C L R Ls Rs LFE
    Sampling rate               : 48.0 kHz
    Frame rate                  : 93.750 FPS (512 SPF)
    Bit depth                   : 16 bits
    Compression mode            : Lossy
    Stream size                 : 1.25 GiB (27%)
    Title                       : Ingles [CinemaniaHDD]
    Language                    : English
    Default                     : No
    Forced                      : No

    Text #1
    ID                          : 5
    ID in the original source m : 4611 (0x1203)
    Format                      : PGS
    Muxing mode                 : zlib
    Codec ID                    : S_HDMV/PGS
    Codec ID/Info               : Picture based subtitle format used on BDs/HD-DVDs
    Duration                    : 1 h 57 min
    Bit rate                    : 498 b/s
    Count of elements           : 28
    Stream size                 : 427 KiB (0%)
    Title                       : Forzados-PGS [CinemaniaHDD]
    Language                    : Spanish
    Default                     : No
    Forced                      : No
    Original source medium      : Blu-ray

    Text #2
    ID                          : 6
    ID in the original source m : 4609 (0x1201)
    Format                      : PGS
    Muxing mode                 : zlib
    Codec ID                    : S_HDMV/PGS
    Codec ID/Info               : Picture based subtitle format used on BDs/HD-DVDs
    Duration                    : 1 h 57 min
    Bit rate                    : 24.2 kb/s
    Count of elements           : 2204
    Stream size                 : 20.3 MiB (0%)
    Title                       : Español-PGS [CinemaniaHDD]
    Language                    : Spanish
    Default                     : No
    Forced                      : No
    Original source medium      : Blu-ray

    Text #3
    ID                          : 7
    ID in the original source m : 4608 (0x1200)
    Format                      : PGS
    Muxing mode                 : zlib
    Codec ID                    : S_HDMV/PGS
    Codec ID/Info               : Picture based subtitle format used on BDs/HD-DVDs
    Duration                    : 1 h 48 min
    Bit rate                    : 32.2 kb/s
    Count of elements           : 2586
    Stream size                 : 25.0 MiB (1%)
    Title                       : Ingles-PGS [CinemaniaHDD]
    Language                    : English
    Default                     : No
    Forced                      : No
    Original source medium      : Blu-ray

    Text #4
    ID                          : 8
    Format                      : UTF-8
    Codec ID                    : S_TEXT/UTF8
    Codec ID/Info               : UTF-8 Plain Text
    Duration                    : 7 min 4 s
    Bit rate                    : 9 b/s
    Count of elements           : 12
    Stream size                 : 502 Bytes (0%)
    Title                       : Forzados-SRT [CinemaniaHDD]
    Language                    : Spanish
    Default                     : Yes
    Forced                      : Yes

    Text #5
    ID                          : 9
    Format                      : UTF-8
    Codec ID                    : S_TEXT/UTF8
    Codec ID/Info               : UTF-8 Plain Text
    Duration                    : 1 h 56 min
    Bit rate                    : 35 b/s
    Count of elements           : 1096
    Stream size                 : 30.6 KiB (0%)
    Title                       : Español-SRT [CinemaniaHDD]
    Language                    : Spanish
    Default                     : No
    Forced                      : No

    Menu
    00:00:00.000                : Chapter 01
    00:04:09.499                : Chapter 02
    00:08:39.477                : Chapter 03
    00:12:22.116                : Chapter 04
    00:17:12.406                : Chapter 05
    00:24:20.542                : Chapter 06
    00:30:20.568                : Chapter 07
    00:36:52.293                : Chapter 08
    00:43:09.962                : Chapter 09
    00:47:36.937                : Chapter 10
    00:52:56.631                : Chapter 11
    01:00:51.522                : Chapter 12
    01:05:38.142                : Chapter 13
    01:10:35.105                : Chapter 14
    01:17:41.948                : Chapter 15
    01:23:53.194                : Chapter 16
    01:30:24.001                : Chapter 17
    01:38:28.903                : Chapter 18
    01:44:01.276                : Chapter 19
    01:49:23.265                : Chapter 20

  • Peso: 4.65 GB

Sinopsis

Descargar Dracula: Mar De Sangre (2023) PLACEBO Full HD 1080p Latino. Basado en un solo capítulo, el Captain’s Log, de la clásica novela Drácula de 1897 de Bram Stoker, la historia se desarrolla a bordo de la goleta rusa Demeter, que fue fletada para transportar carga privada (veinticuatro cajas de madera sin marcar) desde Carpatia a Londres. La película detallará los extraños eventos que acontecieron a la tripulación condenada mientras intentan sobrevivir al viaje por el océano, acechados cada noche por una aterradora presencia a bordo del barco. Cuando finalmente llegó cerca del puerto de Whitby, estaba totalmente en ruinas. No había rastro de la tripulación.

Español Latino EAC3 7.1 & Core AC3 5.1 + Ingles DTS 5.1 

Ficha técnica

Video trailer de la película

Enlaces de descarga

Rip de Bluray

Descargar Dracula: Mar De Sangre (2023) PLACEBO Full HD 1080p Latino




Aportes de DPeliculasHDmega la pass es:dpeliculashdmega.org Aportes de CinemaniaHD la pass es:cinemaniahdd.com Aportes recientes:cinemaniahdd.net

Películas relacionadas

  • La Duquesa (2008) Full HD 1080p Latino-CMHDD

    La Duquesa (2008) Full HD 1080p Latino-CMHDD

    2008
    La Duquesa (2008) Full HD 1080p Latino-CMHDD

    1h 51m 2008

    Descargar La Duquesa (2008) Full HD 1080p Latino-CMHDD. Hermosa, glamurosa y adorada por el pueblo, Georgiana...

    Director: Saul Dibb

    Género: Drama

    Actores: Thomas Arnold

  • Godzilla vs. Kong (2021) REMUX 4K HDR Latino – CMHDD

    Godzilla vs. Kong (2021) REMUX 4K HDR Latino – CMHDD

    2021
    Godzilla vs. Kong (2021) REMUX 4K HDR Latino – CMHDD

    1h 54m 2021

    Godzilla y Kong, dos de las fuerzas más poderosas de un planeta habitado por todo tipo de aterradoras...

    Director: Thomas Robinson Harper

    Género: Acción

    Actores: Victoria Liu

  • Ferrari (2023) PLACEBO Full HD 1080p Latino

    Ferrari (2023) PLACEBO Full HD 1080p Latino

    2023
    Ferrari (2023) PLACEBO Full HD 1080p Latino

    2h 11m 2023

    Descargar Ferrari (2023) PLACEBO Full HD 1080p Latino. Verano de 1957. El ex piloto de carreras, Ferrari,...

    Director: Peter Thorell

    Género: Drama

    Actores: Wyatt Carnel

descargar Dracula: Mar De Sangre (2023) PLACEBO Full HD 1080p Latino Full 1080p 1080p gratis, Dracula: Mar De Sangre (2023) PLACEBO Full HD 1080p Latino Full 1080p mega 1 link, Dracula: Mar De Sangre (2023) PLACEBO Full HD 1080p Latino Full 1080p pelicula completa, descargar Dracula: Mar De Sangre (2023) PLACEBO Full HD 1080p Latino Full 1080p gratis en mega.

Dracula: Mar De Sangre (2023) PLACEBO Full HD 1080p Latino pelicula full hd, Dracula: Mar De Sangre (2023) PLACEBO Full HD 1080p Latino mega latino, Dracula: Mar De Sangre (2023) PLACEBO Full HD 1080p Latino 4k latino, Dracula: Mar De Sangre (2023) PLACEBO Full HD 1080p Latino pelicula completa, Dracula: Mar De Sangre (2023) PLACEBO Full HD 1080p Latino descargar gratis, descargar Dracula: Mar De Sangre (2023) PLACEBO Full HD 1080p Latino pelicula latino, Dracula: Mar De Sangre (2023) PLACEBO Full HD 1080p Latino 1 link mega, Dracula: Mar De Sangre (2023) PLACEBO Full HD 1080p Latino 1 link google drive, Dracula: Mar De Sangre (2023) PLACEBO Full HD 1080p Latino hd 1080p latino.
Comentarios 0