×

¿Problemas para descargar con Mozilla, EDGE? Deshabilita la opción "Abrir vinculos en una pestaña nueva" tal como lo muestra ésta imagen.

Drácula Aun Esta Vivo (2022) WEB-DL 1080p Latino

40 vistas

Información de Drácula Aun Esta Vivo (2022) WEB-DL 1080p Latino

Datos de la película

  • Calidad: WEBDL
  • Audio: Español Latino AC3 5.1 WEB-DL - Ingles AC3 5.1 WEB-DL
  • Subtitulos: Español Latino SRT- FORZADOS SRT
  • Resolución: 1916x796p
  • Formato: MKV
  • Codec: H.264
  • Encoder: Melkor
  • Mediainfo: Clic para Mostrar Datos Ver
  • Dracula Aun Esta Vivo (2022) WebDL 1080p Latino.mkv
    Format                      : Matroska
    Format version              : Version 4
    File size                   : 4.65 GiB
    Duration                    : 1 h 26 min
    Overall bit rate            : 7 659 kb/s
    Movie name                  : Dracula The Original Living Vampire (2022) CinemaniaHDD.Net
    Encoded date                : UTC 2022-10-29 04:39:04
    Writing application         : mkvmerge v56.1.0 ('My Friend') 64-bit
    Writing library             : libebml v1.4.2 + libmatroska v1.6.4
    Attachments                 : CINEMANIAHD.png

    Video
    ID                          : 1
    Format                      : AVC
    Format/Info                 : Advanced Video Codec
    Format profile              : High@L4
    Format settings             : CABAC / 5 Ref Frames
    Format settings, CABAC      : Yes
    Format settings, Reference  : 5 frames
    Codec ID                    : V_MPEG4/ISO/AVC
    Duration                    : 1 h 26 min
    Bit rate                    : 6 825 kb/s
    Width                       : 1 916 pixels
    Height                      : 796 pixels
    Display aspect ratio        : 2.40:1
    Frame rate mode             : Constant
    Frame rate                  : 23.976 (24000/1001) FPS
    Color space                 : YUV
    Chroma subsampling          : 4:2:0
    Bit depth                   : 8 bits
    Scan type                   : Progressive
    Bits/(Pixel*Frame)          : 0.187
    Stream size                 : 4.14 GiB (89%)
    Title                       : Web HD1080p [CinemaniaHDD]
    Default                     : Yes
    Forced                      : Yes
    Color range                 : Limited
    Color primaries             : BT.709
    Transfer characteristics    : BT.709
    Matrix coefficients         : BT.709

    Audio #1
    ID                          : 2
    Format                      : AC-3
    Format/Info                 : Audio Coding 3
    Commercial name             : Dolby Digital
    Codec ID                    : A_AC3
    Duration                    : 1 h 26 min
    Bit rate mode               : Constant
    Bit rate                    : 448 kb/s
    Channel(s)                  : 6 channels
    Channel layout              : L R C LFE Ls Rs
    Sampling rate               : 48.0 kHz
    Frame rate                  : 31.250 FPS (1536 SPF)
    Compression mode            : Lossy
    Stream size                 : 279 MiB (6%)
    Title                       : Español Latino [CinemaniaHDD]
    Language                    : Spanish
    Service kind                : Complete Main
    Default                     : Yes
    Forced                      : Yes

    Audio #2
    ID                          : 3
    Format                      : AC-3
    Format/Info                 : Audio Coding 3
    Commercial name             : Dolby Digital
    Codec ID                    : A_AC3
    Duration                    : 1 h 26 min
    Bit rate mode               : Constant
    Bit rate                    : 384 kb/s
    Channel(s)                  : 6 channels
    Channel layout              : L R C LFE Ls Rs
    Sampling rate               : 48.0 kHz
    Frame rate                  : 31.250 FPS (1536 SPF)
    Compression mode            : Lossy
    Stream size                 : 239 MiB (5%)
    Title                       : Ingles [CinemaniaHDD]
    Language                    : English
    Service kind                : Complete Main
    Default                     : No
    Forced                      : No

    Text #1
    ID                          : 4
    Format                      : UTF-8
    Codec ID                    : S_TEXT/UTF8
    Codec ID/Info               : UTF-8 Plain Text
    Duration                    : 1 h 19 min
    Bit rate                    : 0 b/s
    Count of elements           : 2
    Stream size                 : 80.0 Bytes (0%)
    Title                       : Forzados-SRT [CinemaniaHDD]
    Language                    : Spanish
    Default                     : Yes
    Forced                      : Yes

    Text #2
    ID                          : 5
    Format                      : UTF-8
    Codec ID                    : S_TEXT/UTF8
    Codec ID/Info               : UTF-8 Plain Text
    Duration                    : 1 h 21 min
    Bit rate                    : 70 b/s
    Count of elements           : 1068
    Stream size                 : 42.2 KiB (0%)
    Title                       : Español-SRT [CinemaniaHDD]
    Language                    : Spanish
    Default                     : No
    Forced                      : No

  • Peso: 4.65 GiB

Sinopsis

Descargar Drácula Aun Esta Vivo (2022) WEB-DL 1080p Latino. La detective Amelia Van Helsing está en la búsqueda desesperada del asesino responsable de una serie de espeluznantes asesinatos contra mujeres jóvenes. Las cosas solo empeoran cuando todas las pruebas conducen al aparentemente intocable Conde Drácula. Y cuando la novia de Van Helsing desaparece, se ve obligada a cuestionar la existencia misma de los monstruos en un enfrentamiento final con el enigmático conde.

Ficha técnica

Video trailer de la película

Enlaces de descarga

Rip de Bluray

Descargar Drácula Aun Esta Vivo (2022) WEB-DL 1080p Latino




Aportes de DPeliculasHDmega la pass es:dpeliculashdmega.org Aportes de CinemaniaHD la pass es:cinemaniahdd.com
Guardado en : Fantasía , Suspenso , Terror

Películas relacionadas

descargar Drácula Aun Esta Vivo (2022) WEB-DL 1080p Latino WEBDL 1080p gratis, Drácula Aun Esta Vivo (2022) WEB-DL 1080p Latino WEBDL mega 1 link, Drácula Aun Esta Vivo (2022) WEB-DL 1080p Latino WEBDL pelicula completa, descargar Drácula Aun Esta Vivo (2022) WEB-DL 1080p Latino WEBDL gratis en mega.

Drácula Aun Esta Vivo (2022) WEB-DL 1080p Latino pelicula full hd, Drácula Aun Esta Vivo (2022) WEB-DL 1080p Latino mega latino, Drácula Aun Esta Vivo (2022) WEB-DL 1080p Latino 4k latino, Drácula Aun Esta Vivo (2022) WEB-DL 1080p Latino pelicula completa, Drácula Aun Esta Vivo (2022) WEB-DL 1080p Latino descargar gratis, descargar Drácula Aun Esta Vivo (2022) WEB-DL 1080p Latino pelicula latino, Drácula Aun Esta Vivo (2022) WEB-DL 1080p Latino 1 link mega, Drácula Aun Esta Vivo (2022) WEB-DL 1080p Latino 1 link google drive, Drácula Aun Esta Vivo (2022) WEB-DL 1080p Latino hd 1080p latino.
Comentarios 0