×

¿Problemas para descargar con Mozilla, EDGE? Deshabilita la opción "Abrir vinculos en una pestaña nueva" tal como lo muestra ésta imagen.

Dracula (1992) REMUX 4K HDR Latino – CMHDD

226 vistas

Información de Dracula (1992) REMUX 4K HDR Latino – CMHDD

Datos de la película

  • Calidad: 4K HDR
  • Audio: Español Latino AC3 5.1 BLURAY - Ingles AC3 5.1 BLURAY
  • Subtitulos: Español Latino PGS
  • Resolución: 3840x2160p
  • Formato: MKV
  • Codec: HEVC
  • Encoder: Dracarys
  • Mediainfo: Clic para Mostrar Datos Ver
  • Format                      : Matroska
    Format version              : Version 4
    File size                   : 50.3 GiB
    Duration                    : 2 h 7 min
    Overall bit rate mode       : Variable
    Overall bit rate            : 56.6 Mb/s
    Movie name                  : Dracula (1992) REMUX 4K HDR Latino - CMHDD
    Encoded date                : UTC 2021-09-12 01:47:44
    Writing application         : mkvmerge v17.0.0 ('Be Ur Friend') 64-bit
    Writing library             : libebml v1.3.5 + libmatroska v1.4.8

    Video
    ID                          : 1
    Format                      : HEVC
    Format/Info                 : High Efficiency Video Coding
    Format profile              : Main 10@L5.1@High
    HDR format                  : SMPTE ST 2086, HDR10 compatible
    Codec ID                    : V_MPEGH/ISO/HEVC
    Duration                    : 2 h 7 min
    Bit rate                    : 50.4 Mb/s
    Width                       : 3 840 pixels
    Height                      : 2 160 pixels
    Display aspect ratio        : 16:9
    Frame rate mode             : Constant
    Frame rate                  : 23.976 (24000/1001) FPS
    Color space                 : YUV
    Chroma subsampling          : 4:2:0 (Type 2)
    Bit depth                   : 10 bits
    Bits/(Pixel*Frame)          : 0.253
    Stream size                 : 44.8 GiB (89%)
    Default                     : Yes
    Forced                      : No
    Color range                 : Limited
    Color primaries             : BT.2020
    Transfer characteristics    : PQ
    Matrix coefficients         : BT.2020 non-constant
    Mastering display color pri : Display P3
    Mastering display luminance : min: 0.0050 cd/m2, max: 4000 cd/m2
    Maximum Content Light Level : 4809 cd/m2
    Maximum Frame-Average Light : 537 cd/m2

    Audio #1
    ID                          : 2
    Format                      : MLP FBA 16-ch
    Format/Info                 : Meridian Lossless Packing FBA with 16-channel presentation
    Commercial name             : Dolby TrueHD with Dolby Atmos
    Codec ID                    : A_TRUEHD
    Duration                    : 2 h 7 min
    Bit rate mode               : Variable
    Bit rate                    : 4 991 kb/s
    Maximum bit rate            : 7 662 kb/s
    Channel(s)                  : 8 channels
    Channel layout              : L R C LFE Ls Rs Lb Rb
    Sampling rate               : 48.0 kHz
    Frame rate                  : 1 200.000 FPS (40 SPF)
    Compression mode            : Lossless
    Stream size                 : 4.44 GiB (9%)
    Language                    : English
    Default                     : No
    Forced                      : No
    Number of dynamic objects   : 11
    Bed channel count           : 1 channel
    Bed channel configuration   : LFE

    Audio #2
    ID                          : 3
    Format                      : AC-3
    Format/Info                 : Audio Coding 3
    Commercial name             : Dolby Digital
    Codec ID                    : A_AC3
    Duration                    : 2 h 7 min
    Bit rate mode               : Constant
    Bit rate                    : 640 kb/s
    Channel(s)                  : 6 channels
    Channel layout              : L R C LFE Ls Rs
    Sampling rate               : 48.0 kHz
    Frame rate                  : 31.250 FPS (1536 SPF)
    Compression mode            : Lossy
    Stream size                 : 583 MiB (1%)
    Language                    : English
    Service kind                : Complete Main
    Default                     : No
    Forced                      : No

    Audio #3
    ID                          : 4
    Format                      : AC-3
    Format/Info                 : Audio Coding 3
    Commercial name             : Dolby Digital
    Codec ID                    : A_AC3
    Duration                    : 2 h 7 min
    Bit rate mode               : Constant
    Bit rate                    : 448 kb/s
    Channel(s)                  : 6 channels
    Channel layout              : L R C LFE Ls Rs
    Sampling rate               : 48.0 kHz
    Frame rate                  : 31.250 FPS (1536 SPF)
    Compression mode            : Lossy
    Stream size                 : 408 MiB (1%)
    Language                    : Spanish
    Service kind                : Complete Main
    Default                     : Yes
    Forced                      : No

    Text
    ID                          : 5
    Format                      : PGS
    Muxing mode                 : zlib
    Codec ID                    : S_HDMV/PGS
    Codec ID/Info               : Picture based subtitle format used on BDs/HD-DVDs
    Duration                    : 1 h 58 min
    Bit rate                    : 23.0 kb/s
    Count of elements           : 2322
    Stream size                 : 19.5 MiB (0%)
    Language                    : Spanish
    Default                     : No
    Forced                      : No

    Menu
    00:00:00.000                : en:Chapter 1
    00:05:45.178                : en:Chapter 2
    00:12:28.372                : en:Chapter 3
    00:23:15.185                : en:Chapter 4
    00:35:33.214                : en:Chapter 5
    00:37:45.263                : en:Chapter 6
    00:43:38.240                : en:Chapter 7
    00:48:04.756                : en:Chapter 8
    00:54:35.855                : en:Chapter 9
    01:08:08.876                : en:Chapter 10
    01:12:22.796                : en:Chapter 11
    01:17:45.369                : en:Chapter 12
    01:23:17.993                : en:Chapter 13
    01:35:31.392                : en:Chapter 14
    01:48:19.868                : en:Chapter 15
    01:55:28.630                : en:Chapter 16

  • Peso: 50.3 GiB

Sinopsis

Antes de convertirse en vampiro, el conde Drácula era el príncipe Vlad, quien tras conocer la muerte de su prometida, vendió su alma al diablo. Cuatro siglos después, en Londres, encuentra a Mina, reencarnación de su amor perdido.

Ficha técnica

Video trailer de la película

Enlaces de descarga

Rip de Bluray

Descargar Dracula (1992) REMUX 4K HDR Latino – CMHDD


Aportes de DPeliculasHDmega la pass es:dpeliculashdmega.org Aportes de CinemaniaHD la pass es:cinemaniahdd.com
Guardado en : Romance , Terror

Películas relacionadas

  • Hombre de familia (2000) REMUX 1080p Latino

    Hombre de familia (2000) REMUX 1080p Latino

    2000
    Hombre de familia (2000) REMUX 1080p Latino

    2h 1m 2000

    Descargar Hombre de familia (2000) REMUX 1080p Latino. Jack Campbell es un egocéntrico broker de Wall...

    Director: Robert Schroer

    Género: Comedia

    Actores: Wass Stevens

  • Te Amo Brother (2009) REMUX 1080p Latino

    Te Amo Brother (2009) REMUX 1080p Latino

    2009
    Te Amo Brother (2009) REMUX 1080p Latino

    1h 45m 2009

    Descargar Te Amo Brother (2009) REMUX 1080p Latino. Peter Klaven (Paul Rudd) es un joven que vive muy...

    Director: Scott Robertson

    Género: Comedia

    Actores: Vicki Davis

  • Asústame (2020) HD 1080p Latino

    Asústame (2020) HD 1080p Latino

    2020
    Asústame (2020) HD 1080p Latino

    1h 44m 2020

    Descargar Asústame (2020) HD 1080p Latino. Durante un corte de energía, dos extraños cuentan historias...

    Director: Josh Ruben

    Género: Comedia

    Actores: Rebecca Drysdale

  • Asústame (2020) PLACEBO Full HD 1080p Latino

    Asústame (2020) PLACEBO Full HD 1080p Latino

    2020
    Asústame (2020) PLACEBO Full HD 1080p Latino

    1h 44m 2020

    Descargar Asústame (2020) PLACEBO Full HD 1080p Latino. Durante un corte de energía, dos extraños...

    Director: Josh Ruben

    Género: Comedia

    Actores: Rebecca Drysdale

descargar Dracula (1992) REMUX 4K HDR Latino – CMHDD 4K HDR 1080p gratis, Dracula (1992) REMUX 4K HDR Latino – CMHDD 4K HDR mega 1 link, Dracula (1992) REMUX 4K HDR Latino – CMHDD 4K HDR pelicula completa, descargar Dracula (1992) REMUX 4K HDR Latino – CMHDD 4K HDR gratis en mega.

Dracula (1992) REMUX 4K HDR Latino – CMHDD pelicula full hd, Dracula (1992) REMUX 4K HDR Latino – CMHDD mega latino, Dracula (1992) REMUX 4K HDR Latino – CMHDD 4k latino, Dracula (1992) REMUX 4K HDR Latino – CMHDD pelicula completa, Dracula (1992) REMUX 4K HDR Latino – CMHDD descargar gratis, descargar Dracula (1992) REMUX 4K HDR Latino – CMHDD pelicula latino, Dracula (1992) REMUX 4K HDR Latino – CMHDD 1 link mega, Dracula (1992) REMUX 4K HDR Latino – CMHDD 1 link google drive, Dracula (1992) REMUX 4K HDR Latino – CMHDD hd 1080p latino.