×

¿Problemas para descargar con Mozilla, EDGE? Deshabilita la opción "Abrir vinculos en una pestaña nueva" tal como lo muestra ésta imagen.

Dracula (1979) REMUX 1080p Latino – CMHDD

229 vistas

Información de Dracula (1979) REMUX 1080p Latino – CMHDD

Datos de la película

  • Calidad: Full 1080p
  • Audio: Español Latino AC3 2.0
  • Subtitulos: Español Latino PGS
  • Resolución: 1920x1080p
  • Formato: MKV
  • Codec: H.264
  • Encoder: Dracarys
  • Mediainfo: Clic para Mostrar Datos Ver
  • Format                      : Matroska
    Format version              : Version 4
    File size                   : 26.2 GiB
    Duration                    : 1 h 49 min
    Overall bit rate mode       : Variable
    Overall bit rate            : 34.4 Mb/s
    Movie name                  : Dracula (1979) REMUX 1080p Latino - CMHDD
    Encoded date                : UTC 2021-07-21 01:03:50
    Writing application         : mkvmerge v56.1.0 ('My Friend') 64-bit
    Writing library             : libebml v1.4.2 + libmatroska v1.6.4
    Cover                       : Yes
    Attachments                 : cover.jpg

    Video
    ID                          : 1
    ID in the original source m : 4113 (0x1011)
    Format                      : AVC
    Format/Info                 : Advanced Video Codec
    Format profile              : High@L4.1
    Format settings             : CABAC / 4 Ref Frames
    Format settings, CABAC      : Yes
    Format settings, Reference  : 4 frames
    Codec ID                    : V_MPEG4/ISO/AVC
    Duration                    : 1 h 49 min
    Bit rate mode               : Variable
    Bit rate                    : 31.9 Mb/s
    Maximum bit rate            : 35.0 Mb/s
    Width                       : 1 920 pixels
    Height                      : 1 080 pixels
    Display aspect ratio        : 16:9
    Frame rate mode             : Constant
    Frame rate                  : 23.976 (24000/1001) FPS
    Color space                 : YUV
    Chroma subsampling          : 4:2:0
    Bit depth                   : 8 bits
    Scan type                   : Progressive
    Bits/(Pixel*Frame)          : 0.641
    Stream size                 : 24.3 GiB (93%)
    Default                     : Yes
    Forced                      : No
    Original source medium      : Blu-ray

    Audio #1
    ID                          : 2
    ID in the original source m : 4352 (0x1100)
    Format                      : DTS XLL
    Format/Info                 : Digital Theater Systems
    Commercial name             : DTS-HD Master Audio
    Codec ID                    : A_DTS
    Duration                    : 1 h 49 min
    Bit rate mode               : Variable
    Bit rate                    : 2 046 kb/s
    Channel(s)                  : 2 channels
    Sampling rate               : 48.0 kHz
    Frame rate                  : 93.750 FPS (512 SPF)
    Bit depth                   : 24 bits
    Compression mode            : Lossless
    Stream size                 : 1.56 GiB (6%)
    Language                    : English
    Default                     : No
    Forced                      : No
    Original source medium      : Blu-ray

    Audio #2
    ID                          : 3
    ID in the original source m : 4357 (0x1105)
    Format                      : DTS
    Format/Info                 : Digital Theater Systems
    Codec ID                    : A_DTS
    Duration                    : 1 h 49 min
    Bit rate mode               : Constant
    Bit rate                    : 447 kb/s
    Channel(s)                  : 2 channels
    Channel layout              : L R
    Sampling rate               : 48.0 kHz
    Frame rate                  : 93.750 FPS (512 SPF)
    Bit depth                   : 24 bits
    Compression mode            : Lossy
    Stream size                 : 349 MiB (1%)
    Language                    : Spanish
    Default                     : Yes
    Forced                      : No
    Original source medium      : Blu-ray

    Text
    ID                          : 4
    ID in the original source m : 4613 (0x1205)
    Format                      : PGS
    Muxing mode                 : zlib
    Codec ID                    : S_HDMV/PGS
    Codec ID/Info               : Picture based subtitle format used on BDs/HD-DVDs
    Duration                    : 1 h 39 min
    Bit rate                    : 25.6 kb/s
    Count of elements           : 1636
    Stream size                 : 18.2 MiB (0%)
    Language                    : Spanish
    Default                     : No
    Forced                      : No
    Original source medium      : Blu-ray

    Menu
    00:00:00.000                : Chapter 01
    00:03:56.069                : Chapter 02
    00:10:04.645                : Chapter 03
    00:15:45.402                : Chapter 04
    00:23:56.101                : Chapter 05
    00:30:02.342                : Chapter 06
    00:35:44.600                : Chapter 07
    00:41:14.889                : Chapter 08
    00:44:53.232                : Chapter 09
    00:52:35.527                : Chapter 10
    00:57:08.133                : Chapter 11
    01:03:58.876                : Chapter 12
    01:10:28.849                : Chapter 13
    01:14:30.090                : Chapter 14
    01:19:47.699                : Chapter 15
    01:25:06.518                : Chapter 16
    01:30:40.309                : Chapter 17
    01:39:54.196                : Chapter 18

  • Peso: 26.2 GiB

Sinopsis

El conde Drácula, un personaje tan seductor y atractivo como peligroso y carente de escrúpulos, entabla amistad con el Doctor Seward y su entorno. Al poco tiempo, Mina, una conocida del Doctor, muere misteriosamente sin una gota de sangre en su cuerpo…

 

Latino: DTS 2.0  –  Ingles: DTS-HD MA 2.0

Ficha técnica

  • Titulo original: Dracula
  • Fecha de lanzamiento: 20-07-1979 (United Kingdom, United States of America)
  • Director: John Badham
  • Género: Romance, Terror

Video trailer de la película

Enlaces de descarga

Rip de Bluray

Descargar Dracula (1979) REMUX 1080p Latino – CMHDD


Aportes de DPeliculasHDmega la pass es:dpeliculashdmega.org Aportes de CinemaniaHD la pass es:cinemaniahdd.com
Guardado en : Romance , Terror

Películas relacionadas

descargar Dracula (1979) REMUX 1080p Latino – CMHDD Full 1080p 1080p gratis, Dracula (1979) REMUX 1080p Latino – CMHDD Full 1080p mega 1 link, Dracula (1979) REMUX 1080p Latino – CMHDD Full 1080p pelicula completa, descargar Dracula (1979) REMUX 1080p Latino – CMHDD Full 1080p gratis en mega.

Dracula (1979) REMUX 1080p Latino – CMHDD pelicula full hd, Dracula (1979) REMUX 1080p Latino – CMHDD mega latino, Dracula (1979) REMUX 1080p Latino – CMHDD 4k latino, Dracula (1979) REMUX 1080p Latino – CMHDD pelicula completa, Dracula (1979) REMUX 1080p Latino – CMHDD descargar gratis, descargar Dracula (1979) REMUX 1080p Latino – CMHDD pelicula latino, Dracula (1979) REMUX 1080p Latino – CMHDD 1 link mega, Dracula (1979) REMUX 1080p Latino – CMHDD 1 link google drive, Dracula (1979) REMUX 1080p Latino – CMHDD hd 1080p latino.