×

¿Problemas para descargar con Mozilla, EDGE? Deshabilita la opción "Abrir vinculos en una pestaña nueva" tal como lo muestra ésta imagen.

James Bond: El Satanico Dr. No (1962) REMUX 1080p Latino

542 vistas

Información de James Bond: El Satanico Dr. No (1962) REMUX 1080p Latino

Datos de la película

  • Calidad: Full 1080p
  • Audio: Español Latino AC3 5.1 BLURAY - Ingles DTS 5.1 BLURAY
  • Subtitulos: Español Latino PGS - Ingles PGS
  • Resolución: 1920x1080p
  • Formato: MKV
  • Codec: H.264
  • Encoder: CinefiloCool
  • Mediainfo: Clic para Mostrar Datos Ver
  • El Satanico Dr. No (1962) REMUX 1080p Latino-CMHDD.mkv
    Format                      : Matroska
    Format version              : Version 4
    File size                   : 25.2 GiB
    Duration                    : 1 h 49 min
    Overall bit rate mode       : Variable
    Overall bit rate            : 32.8 Mb/s
    Movie name                  : Dr. No (1962) CinemaniaHDD.Net
    Encoded date                : UTC 2020-05-17 05:01:49
    Writing application         : mkvmerge v46.0.0 ('No Deeper Escape') 64-bit
    Writing library             : libebml v1.3.10 + libmatroska v1.5.2
    Attachments                 : CINEMANIAHD.png

    Video
    ID                          : 1
    Format                      : AVC
    Format/Info                 : Advanced Video Codec
    Format profile              : High@L4.1
    Format settings             : CABAC / 4 Ref Frames
    Format settings, CABAC      : Yes
    Format settings, Reference  : 4 frames
    Codec ID                    : V_MPEG4/ISO/AVC
    Duration                    : 1 h 49 min
    Bit rate mode               : Variable
    Bit rate                    : 29.3 Mb/s
    Maximum bit rate            : 35.9 Mb/s
    Width                       : 1 920 pixels
    Height                      : 1 080 pixels
    Display aspect ratio        : 16:9
    Frame rate mode             : Constant
    Frame rate                  : 23.976 (24000/1001) FPS
    Color space                 : YUV
    Chroma subsampling          : 4:2:0
    Bit depth                   : 8 bits
    Scan type                   : Progressive
    Bits/(Pixel*Frame)          : 0.589
    Stream size                 : 22.5 GiB (89%)
    Title                       : REMUX 1080p [CinemaniaHDD]
    Default                     : Yes
    Forced                      : No
    Color range                 : Limited
    Color primaries             : BT.709
    Transfer characteristics    : BT.709
    Matrix coefficients         : BT.709

    Audio #1
    ID                          : 2
    Format                      : AC-3
    Format/Info                 : Audio Coding 3
    Commercial name             : Dolby Digital
    Codec ID                    : A_AC3
    Duration                    : 1 h 49 min
    Bit rate mode               : Constant
    Bit rate                    : 448 kb/s
    Channel(s)                  : 6 channels
    Channel layout              : L R C LFE Ls Rs
    Sampling rate               : 48.0 kHz
    Frame rate                  : 31.250 FPS (1536 SPF)
    Compression mode            : Lossy
    Stream size                 : 352 MiB (1%)
    Title                       : Español Latino [CinemaniaHDD]
    Language                    : Spanish
    Service kind                : Complete Main
    Default                     : Yes
    Forced                      : No

    Audio #2
    ID                          : 3
    Format                      : DTS XLL
    Format/Info                 : Digital Theater Systems
    Commercial name             : DTS-HD Master Audio
    Codec ID                    : A_DTS
    Duration                    : 1 h 49 min
    Bit rate mode               : Variable
    Bit rate                    : 3 050 kb/s
    Channel(s)                  : 6 channels
    Channel layout              : C L R Ls Rs LFE
    Sampling rate               : 48.0 kHz
    Frame rate                  : 93.750 FPS (512 SPF)
    Bit depth                   : 24 bits
    Compression mode            : Lossless
    Stream size                 : 2.34 GiB (9%)
    Title                       : Ingles [CinemaniaHDD]
    Language                    : English
    Default                     : No
    Forced                      : No

    Text #1
    ID                          : 4
    Format                      : PGS
    Muxing mode                 : zlib
    Codec ID                    : S_HDMV/PGS
    Codec ID/Info               : Picture based subtitle format used on BDs/HD-DVDs
    Duration                    : 1 h 45 min
    Bit rate                    : 226 b/s
    Count of elements           : 18
    Stream size                 : 176 KiB (0%)
    Title                       : Forzados-PGS [CinemaniaHDD]
    Language                    : Spanish
    Default                     : Yes
    Forced                      : Yes

    Text #2
    ID                          : 5
    Format                      : PGS
    Muxing mode                 : zlib
    Codec ID                    : S_HDMV/PGS
    Codec ID/Info               : Picture based subtitle format used on BDs/HD-DVDs
    Duration                    : 1 h 45 min
    Bit rate                    : 30.7 kb/s
    Count of elements           : 2074
    Stream size                 : 23.3 MiB (0%)
    Title                       : Español-PGS [CinemaniaHDD]
    Language                    : Spanish
    Default                     : No
    Forced                      : No

    Text #3
    ID                          : 6
    Format                      : PGS
    Muxing mode                 : zlib
    Codec ID                    : S_HDMV/PGS
    Codec ID/Info               : Picture based subtitle format used on BDs/HD-DVDs
    Duration                    : 1 h 47 min
    Bit rate                    : 34.4 kb/s
    Count of elements           : 2222
    Stream size                 : 26.6 MiB (0%)
    Title                       : Ingles-PGS [CinemaniaHDD]
    Language                    : English
    Default                     : No
    Forced                      : No

    Text #4
    ID                          : 7
    Format                      : UTF-8
    Codec ID                    : S_TEXT/UTF8
    Codec ID/Info               : UTF-8 Plain Text
    Duration                    : 1 h 45 min
    Bit rate                    : 0 b/s
    Count of elements           : 9
    Stream size                 : 235 Bytes (0%)
    Title                       : Forzados-SRT [CinemaniaHDD]
    Language                    : Spanish
    Default                     : No
    Forced                      : No

    Text #5
    ID                          : 8
    Format                      : UTF-8
    Codec ID                    : S_TEXT/UTF8
    Codec ID/Info               : UTF-8 Plain Text
    Duration                    : 1 h 45 min
    Bit rate                    : 49 b/s
    Count of elements           : 988
    Stream size                 : 38.0 KiB (0%)
    Title                       : Español-SRT [CinemaniaHDD]
    Language                    : Spanish
    Default                     : No
    Forced                      : No

    Menu
    00:00:00.000                : en:Chapter01
    00:02:50.670                : en:Chapter02
    00:06:33.684                : en:Chapter03
    00:09:41.914                : en:Chapter04
    00:16:26.860                : en:Chapter05
    00:19:00.848                : en:Chapter06
    00:22:06.491                : en:Chapter07
    00:24:32.471                : en:Chapter08
    00:26:43.602                : en:Chapter09
    00:28:28.123                : en:Chapter10
    00:31:22.255                : en:Chapter11
    00:36:07.582                : en:Chapter12
    00:37:39.257                : en:Chapter13
    00:41:18.058                : en:Chapter14
    00:44:38.217                : en:Chapter15
    00:46:44.676                : en:Chapter16
    00:48:18.896                : en:Chapter17
    00:51:24.247                : en:Chapter18
    00:55:28.575                : en:Chapter19
    00:58:50.109                : en:Chapter20
    01:01:55.920                : en:Chapter21
    01:08:08.125                : en:Chapter22
    01:12:39.855                : en:Chapter23
    01:15:17.930                : en:Chapter24
    01:18:04.304                : en:Chapter25
    01:20:54.432                : en:Chapter26
    01:26:28.600                : en:Chapter27
    01:34:00.760                : en:Chapter28
    01:39:03.270                : en:Chapter29
    01:43:05.429                : en:Chapter30
    01:45:19.021                : en:Chapter31
    01:47:30.193                : en:Chapter32
    01:49:50.208                : en:Chapter33

  • Peso: 25.2 GiB

Sinopsis

Descargar James Bond: El Satanico Dr. No (1962) REMUX 1080p Latino. James Bond llega a Jamaica con la misión de investigar los asesinatos cometidos por un agente especial británico y su secretaria. Pero, al mismo tiempo, descubre la existencia de una siniestra organización en la isla Crab Key. En esta ocasión su enemigo es el Doctor No, que, ayudado por su cómplice, el profesor Dent, se propone ejecutar un siniestro plan: desviar la trayectoria de los cohetes de Cabo Cañaveral.

Ficha técnica

Video trailer de la película

Enlaces de descarga

Rip de Bluray

Descargar James Bond: El Satanico Dr. No (1962) REMUX 1080p Latino




Aportes de DPeliculasHDmega la pass es:dpeliculashdmega.org Aportes de CinemaniaHD la pass es:cinemaniahdd.com
Guardado en : Acción , Aventura , Remux , Suspenso

Películas relacionadas

  • Mi amigo el dragón (2016) Full HD 1080p Latino

    Mi amigo el dragón (2016) Full HD 1080p Latino

    2016
    Mi amigo el dragón (2016) Full HD 1080p Latino

    1h 43m 2016

    Descargar Mi amigo el dragón (2016) Full HD 1080p Latino. Durante años el Sr. Meacham, un viejo tallador...

    Director: Joe Nolan

    Género: Aventura

    Actores: William J. Rawbone

  • Mi amigo el dragón (2016) REMUX 1080p Latino

    Mi amigo el dragón (2016) REMUX 1080p Latino

    2016
    Mi amigo el dragón (2016) REMUX 1080p Latino

    1h 43m 2016

    Descargar Mi amigo el dragón (2016) REMUX 1080p Latino. Durante años el Sr. Meacham, un viejo tallador...

    Director: Joe Nolan

    Género: Aventura

    Actores: William J. Rawbone

  • El discurso del Rey (2010) REMUX 1080p Latino

    El discurso del Rey (2010) REMUX 1080p Latino

    2010
    El discurso del Rey (2010) REMUX 1080p Latino

    1h 58m 2010

    Descargar El discurso del Rey (2010) REMUX 1080p Latino. El duque de York se convirtió en rey de Gran...

    Director: Tom Hooper

    Género: Drama

    Actores: Tony Earnshaw

  • Lucy (2014) REMUX 4K HDR Latino – CMHDD

    Lucy (2014) REMUX 4K HDR Latino – CMHDD

    2014
    Lucy (2014) REMUX 4K HDR Latino – CMHDD

    1h 30m 2014

    Lucy, una joven obligada a ejercer de mula de una nueva y potente droga, adquiere de repente enormes...

    Director: Luc Besson

    Género: Acción

    Actores: Wolfgang Pissors

descargar James Bond: El Satanico Dr. No (1962) REMUX 1080p Latino Full 1080p 1080p gratis, James Bond: El Satanico Dr. No (1962) REMUX 1080p Latino Full 1080p mega 1 link, James Bond: El Satanico Dr. No (1962) REMUX 1080p Latino Full 1080p pelicula completa, descargar James Bond: El Satanico Dr. No (1962) REMUX 1080p Latino Full 1080p gratis en mega.

James Bond: El Satanico Dr. No (1962) REMUX 1080p Latino pelicula full hd, James Bond: El Satanico Dr. No (1962) REMUX 1080p Latino mega latino, James Bond: El Satanico Dr. No (1962) REMUX 1080p Latino 4k latino, James Bond: El Satanico Dr. No (1962) REMUX 1080p Latino pelicula completa, James Bond: El Satanico Dr. No (1962) REMUX 1080p Latino descargar gratis, descargar James Bond: El Satanico Dr. No (1962) REMUX 1080p Latino pelicula latino, James Bond: El Satanico Dr. No (1962) REMUX 1080p Latino 1 link mega, James Bond: El Satanico Dr. No (1962) REMUX 1080p Latino 1 link google drive, James Bond: El Satanico Dr. No (1962) REMUX 1080p Latino hd 1080p latino.
Comentarios 0