×

¿Problemas para descargar con Mozilla, EDGE? Deshabilita la opción "Abrir vinculos en una pestaña nueva" tal como lo muestra ésta imagen.

James Bond: El Satanico Dr. No (1962) 1080p Latino

479 vistas

Información de James Bond: El Satanico Dr. No (1962) 1080p Latino

Datos de la película

  • Calidad: 1080p
  • Audio: Español Latino AC3 5.1 BLURAY - Ingles AC3 5.1 BLURAY
  • Subtitulos: Español Latino SRT - Ingles SRT
  • Resolución: 1920x1014p
  • Formato: MKV
  • Codec: H.264
  • Encoder: CinefiloCool
  • Mediainfo: Clic para Mostrar Datos Ver
  • El Satanico Dr. No (1962) 1080p Latino-CMHDD.mkv
    Format                      : Matroska
    Format version              : Version 4
    File size                   : 3.98 GiB
    Duration                    : 1 h 49 min
    Overall bit rate mode       : Variable
    Overall bit rate            : 5 186 kb/s
    Movie name                  : Dr. No (1962) CinemaniaHDD.Net
    Encoded date                : UTC 2020-05-17 06:01:21
    Writing application         : mkvmerge v46.0.0 ('No Deeper Escape') 64-bit
    Writing library             : libebml v1.3.10 + libmatroska v1.5.2
    Attachments                 : CINEMANIAHD.png

    Video
    ID                          : 1
    Format                      : AVC
    Format/Info                 : Advanced Video Codec
    Format profile              : High@L4
    Format settings             : CABAC / 3 Ref Frames
    Format settings, CABAC      : Yes
    Format settings, Reference  : 3 frames
    Codec ID                    : V_MPEG4/ISO/AVC
    Duration                    : 1 h 49 min
    Bit rate mode               : Variable
    Bit rate                    : 4 096 kb/s
    Width                       : 1 804 pixels
    Height                      : 1 014 pixels
    Display aspect ratio        : 16:9
    Frame rate mode             : Constant
    Frame rate                  : 23.976 (24000/1001) FPS
    Color space                 : YUV
    Chroma subsampling          : 4:2:0
    Bit depth                   : 8 bits
    Scan type                   : Progressive
    Bits/(Pixel*Frame)          : 0.093
    Stream size                 : 3.14 GiB (79%)
    Title                       : HD1080p [CinemaniaHDD]
    Writing library             : x264 core 142 r2479 dd79a61
    Encoding settings           : cabac=1 / ref=3 / deblock=1:0:0 / analyse=0x3:0x113 / me=hex / subme=7 / psy=1 / psy_rd=1.00:0.00 / mixed_ref=1 / me_range=16 / chroma_me=1 / trellis=1 / 8x8dct=1 / cqm=0 / deadzone=21,11 / fast_pskip=1 / chroma_qp_offset=-2 / threads=6 / lookahead_threads=1 / sliced_threads=0 / nr=0 / decimate=1 / interlaced=0 / bluray_compat=0 / constrained_intra=0 / bframes=3 / b_pyramid=0 / b_adapt=1 / b_bias=0 / direct=1 / weightb=1 / open_gop=0 / weightp=2 / keyint=240 / keyint_min=24 / scenecut=40 / intra_refresh=0 / rc_lookahead=40 / rc=2pass / mbtree=1 / bitrate=4096 / ratetol=1.0 / qcomp=0.60 / qpmin=0 / qpmax=69 / qpstep=4 / cplxblur=20.0 / qblur=0.5 / vbv_maxrate=25000 / vbv_bufsize=25000 / nal_hrd=vbr / filler=0 / ip_ratio=1.40 / aq=1:1.00
    Default                     : Yes
    Forced                      : No

    Audio #1
    ID                          : 2
    Format                      : AC-3
    Format/Info                 : Audio Coding 3
    Commercial name             : Dolby Digital
    Codec ID                    : A_AC3
    Duration                    : 1 h 49 min
    Bit rate mode               : Constant
    Bit rate                    : 448 kb/s
    Channel(s)                  : 6 channels
    Channel layout              : L R C LFE Ls Rs
    Sampling rate               : 48.0 kHz
    Frame rate                  : 31.250 FPS (1536 SPF)
    Compression mode            : Lossy
    Stream size                 : 352 MiB (9%)
    Title                       : Español Latino [CinemaniaHDD]
    Language                    : Spanish
    Service kind                : Complete Main
    Default                     : Yes
    Forced                      : No

    Audio #2
    ID                          : 3
    Format                      : AC-3
    Format/Info                 : Audio Coding 3
    Commercial name             : Dolby Digital
    Codec ID                    : A_AC3
    Duration                    : 1 h 49 min
    Bit rate mode               : Constant
    Bit rate                    : 640 kb/s
    Channel(s)                  : 6 channels
    Channel layout              : L R C LFE Ls Rs
    Sampling rate               : 48.0 kHz
    Frame rate                  : 31.250 FPS (1536 SPF)
    Compression mode            : Lossy
    Stream size                 : 503 MiB (12%)
    Title                       : Ingles [CinemaniaHDD]
    Language                    : English
    Service kind                : Complete Main
    Default                     : No
    Forced                      : No

    Text #1
    ID                          : 4
    Format                      : UTF-8
    Codec ID                    : S_TEXT/UTF8
    Codec ID/Info               : UTF-8 Plain Text
    Duration                    : 1 h 45 min
    Bit rate                    : 0 b/s
    Count of elements           : 9
    Stream size                 : 235 Bytes (0%)
    Title                       : Forzados-SRT [CinemaniaHDD]
    Language                    : Spanish
    Default                     : Yes
    Forced                      : No

    Text #2
    ID                          : 5
    Format                      : UTF-8
    Codec ID                    : S_TEXT/UTF8
    Codec ID/Info               : UTF-8 Plain Text
    Duration                    : 1 h 45 min
    Bit rate                    : 49 b/s
    Count of elements           : 988
    Stream size                 : 38.0 KiB (0%)
    Title                       : Español-SRT [CinemaniaHDD]
    Language                    : Spanish
    Default                     : No
    Forced                      : No

    Text #3
    ID                          : 6
    Format                      : UTF-8
    Codec ID                    : S_TEXT/UTF8
    Codec ID/Info               : UTF-8 Plain Text
    Duration                    : 1 h 45 min
    Bit rate                    : 52 b/s
    Count of elements           : 1053
    Stream size                 : 41.0 KiB (0%)
    Title                       : Ingles-SRT [CinemaniaHDD]
    Language                    : English
    Default                     : No
    Forced                      : No

    Menu
    00:00:00.000                : en:1. Logos / Main title
    00:02:50.670                : en:2. Three blind killers
    00:06:33.684                : en:3. "Le cercle" of cards
    00:09:41.914                : en:4. Assignments & guns
    00:16:26.860                : en:5. Sexy golf
    00:19:00.848                : en:6. A very bad driver
    00:22:06.491                : en:7. The dead man's place
    00:24:32.471                : en:8. Taking precautions
    00:26:43.602                : en:9. Finding a Quarrel
    00:28:28.123                : en:10. Spy meets spy
    00:31:22.255                : en:11. No pix, please
    00:36:07.582                : en:12. Ungenuine geologist
    00:37:39.256                : en:13. I don't like failure
    00:41:18.058                : en:14. Along came a spider
    00:44:38.217                : en:15. Oops! Missing files
    00:46:44.676                : en:16. Radioactive samples
    00:48:18.895                : en:17. Road runner
    00:51:24.247                : en:18. Stalling a spy
    00:55:28.575                : en:19. Set up, wait & shoot
    00:58:50.109                : en:20. Shell-shocked
    01:01:55.920                : en:21. Wading into trouble
    01:08:08.125                : en:22. Diesel dragon
    01:12:39.855                : en:23. Decontamination bath
    01:15:17.930                : en:24. A luxurious prison
    01:18:04.304                : en:25. Minnows like whales?
    01:20:54.432                : en:26. Dinner with the Dr.
    01:26:28.600                : en:27. Tunnel of trouble
    01:34:00.760                : en:28. That suit suits me
    01:39:03.270                : en:29. Danger level high
    01:43:05.429                : en:30. Look, no hands!
    01:45:19.021                : en:31. Honey! Abandon ship!
    01:47:30.193                : en:32. Happily lost at sea

  • Peso: 3.98 GiB

Sinopsis

Descargar James Bond: El Satanico Dr. No (1962) 1080p Latino. James Bond llega a Jamaica con la misión de investigar los asesinatos cometidos por un agente especial británico y su secretaria. Pero, al mismo tiempo, descubre la existencia de una siniestra organización en la isla Crab Key. En esta ocasión su enemigo es el Doctor No, que, ayudado por su cómplice, el profesor Dent, se propone ejecutar un siniestro plan: desviar la trayectoria de los cohetes de Cabo Cañaveral.

Ficha técnica

Video trailer de la película

Enlaces de descarga

Rip de Bluray

Descargar James Bond: El Satanico Dr. No (1962) 1080p Latino




Aportes de DPeliculasHDmega la pass es:dpeliculashdmega.org Aportes de CinemaniaHD la pass es:cinemaniahdd.com
Guardado en : Acción , Aventura , HD 1080p , Suspenso

Películas relacionadas

descargar James Bond: El Satanico Dr. No (1962) 1080p Latino 1080p 1080p gratis, James Bond: El Satanico Dr. No (1962) 1080p Latino 1080p mega 1 link, James Bond: El Satanico Dr. No (1962) 1080p Latino 1080p pelicula completa, descargar James Bond: El Satanico Dr. No (1962) 1080p Latino 1080p gratis en mega.

James Bond: El Satanico Dr. No (1962) 1080p Latino pelicula full hd, James Bond: El Satanico Dr. No (1962) 1080p Latino mega latino, James Bond: El Satanico Dr. No (1962) 1080p Latino 4k latino, James Bond: El Satanico Dr. No (1962) 1080p Latino pelicula completa, James Bond: El Satanico Dr. No (1962) 1080p Latino descargar gratis, descargar James Bond: El Satanico Dr. No (1962) 1080p Latino pelicula latino, James Bond: El Satanico Dr. No (1962) 1080p Latino 1 link mega, James Bond: El Satanico Dr. No (1962) 1080p Latino 1 link google drive, James Bond: El Satanico Dr. No (1962) 1080p Latino hd 1080p latino.
Comentarios 0