×

¿Problemas para descargar con Mozilla, EDGE? Deshabilita la opción "Abrir vinculos en una pestaña nueva" tal como lo muestra ésta imagen.

Dr. Death (2021) Primera Temporada AMZN WEB-DL 1080p Latino

163 vistas

Información de Dr. Death (2021) Primera Temporada AMZN WEB-DL 1080p Latino

Datos de la película

  • Calidad: 1080p
  • Audio: Español Latino AC3 5.1 WEB-DL - Ingles AC3 5.1 WEB-DL
  • Subtitulos: Español Latino SRT- FORZADOS SRT
  • Resolución: 1920x1080
  • Formato: MKV
  • Codec: H.264
  • Encoder: cinemaniahdd
  • Mediainfo: Clic para Mostrar Datos Ver
  • Dr. Death T01E01 AMZN WEB-DL 1080p Latino [CNMNHDD].mkv
    Format                      : Matroska
    Format version              : Version 4
    File size                   : 2.67 GiB
    Duration                    : 43 min 34 s
    Overall bit rate            : 8 770 kb/s
    Movie name                  : Dr. Death T01E01 - CinemaniaHDD.Net
    Encoded date                : UTC 2021-10-25 00:53:00
    Writing application         : mkvmerge v56.1.0 ('My Friend') 64-bit
    Writing library             : libebml v1.4.2 + libmatroska v1.6.4

    Video
    ID                          : 1
    Format                      : AVC
    Format/Info                 : Advanced Video Codec
    Format profile              : High@L4
    Format settings             : CABAC / 4 Ref Frames
    Format settings, CABAC      : Yes
    Format settings, Reference  : 4 frames
    Codec ID                    : V_MPEG4/ISO/AVC
    Duration                    : 43 min 34 s
    Bit rate mode               : Constant
    Bit rate                    : 6 848 kb/s
    Nominal bit rate            : 10 000 kb/s
    Width                       : 1 920 pixels
    Height                      : 1 080 pixels
    Display aspect ratio        : 16:9
    Frame rate mode             : Constant
    Frame rate                  : 23.976 (24000/1001) FPS
    Color space                 : YUV
    Chroma subsampling          : 4:2:0
    Bit depth                   : 8 bits
    Scan type                   : Progressive
    Bits/(Pixel*Frame)          : 0.138
    Stream size                 : 2.08 GiB (78%)
    Title                       : CinemaniaHDD
    Default                     : Yes
    Forced                      : No
    Color range                 : Limited
    Color primaries             : BT.709
    Transfer characteristics    : BT.709
    Matrix coefficients         : BT.709

    Audio #1
    ID                          : 2
    Format                      : AC-3
    Format/Info                 : Audio Coding 3
    Commercial name             : Dolby Digital
    Codec ID                    : A_AC3
    Duration                    : 43 min 34 s
    Bit rate mode               : Constant
    Bit rate                    : 640 kb/s
    Channel(s)                  : 6 channels
    Channel layout              : L R C LFE Ls Rs
    Sampling rate               : 48.0 kHz
    Frame rate                  : 31.250 FPS (1536 SPF)
    Compression mode            : Lossy
    Stream size                 : 199 MiB (7%)
    Title                       : Español latino [CinemaniaHDD]
    Language                    : Spanish
    Service kind                : Complete Main
    Default                     : Yes
    Forced                      : No

    Audio #2
    ID                          : 3
    Format                      : E-AC-3
    Format/Info                 : Enhanced AC-3
    Commercial name             : Dolby Digital Plus
    Codec ID                    : A_EAC3
    Duration                    : 43 min 34 s
    Bit rate mode               : Constant
    Bit rate                    : 640 kb/s
    Channel(s)                  : 6 channels
    Channel layout              : L R C LFE Ls Rs
    Sampling rate               : 48.0 kHz
    Frame rate                  : 31.250 FPS (1536 SPF)
    Compression mode            : Lossy
    Stream size                 : 199 MiB (7%)
    Title                       : Español latino / E-AC3 [CinemaniaHDD]
    Language                    : Spanish
    Service kind                : Complete Main
    Default                     : No
    Forced                      : No

    Audio #3
    ID                          : 4
    Format                      : E-AC-3
    Format/Info                 : Enhanced AC-3
    Commercial name             : Dolby Digital Plus
    Codec ID                    : A_EAC3
    Duration                    : 43 min 34 s
    Bit rate mode               : Constant
    Bit rate                    : 640 kb/s
    Channel(s)                  : 6 channels
    Channel layout              : L R C LFE Ls Rs
    Sampling rate               : 48.0 kHz
    Frame rate                  : 31.250 FPS (1536 SPF)
    Compression mode            : Lossy
    Stream size                 : 199 MiB (7%)
    Title                       : Inglés [CinemaniaHDD]
    Language                    : English
    Service kind                : Complete Main
    Default                     : No
    Forced                      : No

    Text #1
    ID                          : 5
    Format                      : UTF-8
    Codec ID                    : S_TEXT/UTF8
    Codec ID/Info               : UTF-8 Plain Text
    Duration                    : 38 min 21 s
    Bit rate                    : 1 b/s
    Count of elements           : 15
    Stream size                 : 316 Bytes (0%)
    Title                       : Forzados [CinemaniaHDD]
    Language                    : Spanish
    Default                     : No
    Forced                      : Yes

    Text #2
    ID                          : 6
    Format                      : UTF-8
    Codec ID                    : S_TEXT/UTF8
    Codec ID/Info               : UTF-8 Plain Text
    Duration                    : 43 min 27 s
    Bit rate                    : 66 b/s
    Count of elements           : 628
    Stream size                 : 21.2 KiB (0%)
    Title                       : Español latino [CinemaniaHDD]
    Language                    : Spanish
    Default                     : No
    Forced                      : No

    Menu
    00:00:00.000                : Studio Logo
    00:00:18.000                : Opening Credits
    00:00:23.000                : Scene 3
    00:03:17.000                : Scene 4
    00:07:49.000                : Scene 5
    00:11:44.000                : Scene 6
    00:16:27.000                : Scene 7
    00:18:27.000                : Scene 8
    00:25:05.000                : Scene 9
    00:27:45.000                : Scene 10
    00:30:22.000                : Scene 11
    00:36:12.000                : Scene 12
    00:38:22.000                : Scene 13
    00:41:49.000                : End Credits

     

  • Peso: 2.67 GiB Aprox ---- 27 GiB in 8 Chapters.

Sinopsis

Basada en la terrorífica historia real sobre el Dr. Christopher Duntsch, una estrella emergente en la comunidad médica de Dallas. Joven, carismático y claramente brillante, Dr. Duntsch fue construyendo una floreciente carrera en la neurocirugía cuando de repente todo cambia. Los pacientes entran en su quirófano para complejas aunque rutinarias cirugías de espina dorsal saliendo definitivamente mutilados o muertos. A medida que las víctimas se acumulan, dos compañeros médicos, el neurocirujano Robert Henderson y el cirujano vascular Randall Kirby, así como la fiscal de Dallas Michelle Shugart, se proponen detenerlo.

 

Ficha técnica

Video trailer de la película

Enlaces de descarga

Rip de Bluray

Descargar Dr. Death (2021) Primera Temporada AMZN WEB-DL 1080p Latino




Aportes de DPeliculasHDmega la pass es:dpeliculashdmega.org Aportes de CinemaniaHD la pass es:cinemaniahdd.com
Guardado en : Crimen , Drama , Series

Películas relacionadas

  • Wire Room (2022) HD 1080p Latino

    Wire Room (2022) HD 1080p Latino

    2022
    Wire Room (2022) HD 1080p Latino

    1h 37m 2022

    Descargar Wire Room (2022) HD 1080p Latino. Mientras está de servicio en la sala de cables, un agente...

    Director: Matt Eskandari

    Género: Acción

    Actores: Texas Battle

  • Wire Room (2022) PLACEBO Full HD 1080p Latino

    Wire Room (2022) PLACEBO Full HD 1080p Latino

    2022
    Wire Room (2022) PLACEBO Full HD 1080p Latino

    1h 37m 2022

    Descargar Wire Room (2022) PLACEBO Full HD 1080p Latino. Mientras está de servicio en la sala de cables,...

    Director: Matt Eskandari

    Género: Acción

    Actores: Texas Battle

  • Wire Room (2022) REMUX 1080p Latino

    Wire Room (2022) REMUX 1080p Latino

    2022
    Wire Room (2022) REMUX 1080p Latino

    1h 37m 2022

    Descargar Wire Room (2022) REMUX 1080p Latino. Mientras está de servicio en la sala de cables, un agente...

    Director: Matt Eskandari

    Género: Acción

    Actores: Texas Battle

descargar Dr. Death (2021) Primera Temporada AMZN WEB-DL 1080p Latino 1080p 1080p gratis, Dr. Death (2021) Primera Temporada AMZN WEB-DL 1080p Latino 1080p mega 1 link, Dr. Death (2021) Primera Temporada AMZN WEB-DL 1080p Latino 1080p serie completa, descargar Dr. Death (2021) Primera Temporada AMZN WEB-DL 1080p Latino 1080p gratis en mega.

Dr. Death (2021) Primera Temporada AMZN WEB-DL 1080p Latino pelicula full hd, Dr. Death (2021) Primera Temporada AMZN WEB-DL 1080p Latino mega latino, Dr. Death (2021) Primera Temporada AMZN WEB-DL 1080p Latino 4k latino, Dr. Death (2021) Primera Temporada AMZN WEB-DL 1080p Latino pelicula completa, Dr. Death (2021) Primera Temporada AMZN WEB-DL 1080p Latino descargar gratis, descargar Dr. Death (2021) Primera Temporada AMZN WEB-DL 1080p Latino pelicula latino, Dr. Death (2021) Primera Temporada AMZN WEB-DL 1080p Latino 1 link mega, Dr. Death (2021) Primera Temporada AMZN WEB-DL 1080p Latino 1 link google drive, Dr. Death (2021) Primera Temporada AMZN WEB-DL 1080p Latino hd 1080p latino.
Comentarios 0