×

¿Problemas para descargar con Mozilla, EDGE? Deshabilita la opción "Abrir vinculos en una pestaña nueva" tal como lo muestra ésta imagen.

Downton Abbey (2019) REMUX 1080p Latino

476 vistas

Información de Downton Abbey (2019) REMUX 1080p Latino

Datos de la película

  • Calidad: Full 1080p
  • Audio: Español Latino DTS 5.1 BLURAY - Ingles DTS-HD Master 7.1 BLURAY
  • Subtitulos: Español Latino PGS - Ingles PGS
  • Resolución: 1920x1080p
  • Formato: MKV
  • Codec: H.264
  • Encoder: CinefiloCool
  • Mediainfo: Clic para Mostrar Datos Ver
  • Downton Abbey (2019) REMUX 1080p Latino-CMHDD.mkv
    Format                      : Matroska
    Format version              : Version 4
    File size                   : 33.1 GiB
    Duration                    : 2 h 1 min
    Overall bit rate mode       : Variable
    Overall bit rate            : 39.0 Mb/s
    Movie name                  : CinemaniaHDD.Net
    Encoded date                : UTC 2019-12-11 16:53:39
    Writing application         : mkvmerge v38.0.0 ('The Silent Type') 64-bit
    Writing library             : libebml v1.3.9 + libmatroska v1.5.2
    Attachments                 : CINEMANIAHD.png

    Video
    ID                          : 1
    Format                      : AVC
    Format/Info                 : Advanced Video Codec
    Format profile              : High@L4.1
    Format settings             : CABAC / 4 Ref Frames
    Format settings, CABAC      : Yes
    Format settings, ReFrames   : 4 frames
    Format settings, GOP        : M=3, N=12
    Codec ID                    : V_MPEG4/ISO/AVC
    Duration                    : 2 h 1 min
    Bit rate mode               : Variable
    Bit rate                    : 33.4 Mb/s
    Maximum bit rate            : 37.2 Mb/s
    Width                       : 1 920 pixels
    Height                      : 1 080 pixels
    Display aspect ratio        : 16:9
    Frame rate mode             : Constant
    Frame rate                  : 23.976 (24000/1001) FPS
    Color space                 : YUV
    Chroma subsampling          : 4:2:0
    Bit depth                   : 8 bits
    Scan type                   : Progressive
    Bits/(Pixel*Frame)          : 0.672
    Stream size                 : 28.4 GiB (86%)
    Title                       : Full HD1080p [REMUX]
    Default                     : Yes
    Forced                      : Yes

    Audio #1
    ID                          : 2
    Format                      : DTS
    Format/Info                 : Digital Theater Systems
    Codec ID                    : A_DTS
    Duration                    : 2 h 1 min
    Bit rate mode               : Constant
    Bit rate                    : 768 kb/s
    Channel(s)                  : 6 channels
    Channel layout              : C L R Ls Rs LFE
    Sampling rate               : 48.0 kHz
    Frame rate                  : 93.750 FPS (512 SPF)
    Bit depth                   : 24 bits
    Compression mode            : Lossy
    Stream size                 : 669 MiB (2%)
    Title                       : DTS_5.1_Bluray_Esp
    Language                    : Spanish
    Default                     : Yes
    Forced                      : Yes

    Audio #2
    ID                          : 3
    Format                      : DTS XLL
    Format/Info                 : Digital Theater Systems
    Commercial name             : DTS-HD Master Audio
    Codec ID                    : A_DTS
    Duration                    : 2 h 1 min
    Bit rate mode               : Variable
    Bit rate                    : 4 756 kb/s
    Channel(s)                  : 8 channels
    Channel layout              : C L R LFE Lb Rb Lss Rss
    Sampling rate               : 48.0 kHz
    Frame rate                  : 93.750 FPS (512 SPF)
    Bit depth                   : 24 bits
    Compression mode            : Lossless
    Stream size                 : 4.04 GiB (12%)
    Title                       : DTS-HD_7.1_Bluray_Eng
    Language                    : English
    Default                     : No
    Forced                      : No

    Text #1
    ID                          : 4
    Format                      : PGS
    Muxing mode                 : zlib
    Codec ID                    : S_HDMV/PGS
    Codec ID/Info               : Picture based subtitle format used on BDs/HD-DVDs
    Duration                    : 2 h 0 min
    Bit rate                    : 57.9 kb/s
    Count of elements           : 4410
    Stream size                 : 49.9 MiB (0%)
    Title                       : Sub_Esp [PGS]
    Language                    : Spanish
    Default                     : No
    Forced                      : No

    Text #2
    ID                          : 5
    Format                      : PGS
    Muxing mode                 : zlib
    Codec ID                    : S_HDMV/PGS
    Codec ID/Info               : Picture based subtitle format used on BDs/HD-DVDs
    Duration                    : 1 h 55 min
    Bit rate                    : 62.0 kb/s
    Count of elements           : 3980
    Stream size                 : 51.2 MiB (0%)
    Title                       : Sub_Eng [PGS]
    Language                    : English
    Default                     : No
    Forced                      : No

    Text #3
    ID                          : 6
    Format                      : UTF-8
    Codec ID                    : S_TEXT/UTF8
    Codec ID/Info               : UTF-8 Plain Text
    Duration                    : 1 h 56 min
    Bit rate                    : 82 b/s
    Count of elements           : 2162
    Stream size                 : 70.1 KiB (0%)
    Title                       : Sub_Esp
    Language                    : Spanish
    Default                     : No
    Forced                      : No

    Menu
    00:00:00.000                : en:Chapter 01
    00:05:50.808                : en:Chapter 02
    00:12:40.509                : en:Chapter 03
    00:18:52.548                : en:Chapter 04
    00:25:24.481                : en:Chapter 05
    00:33:22.667                : en:Chapter 06
    00:39:29.158                : en:Chapter 07
    00:43:47.750                : en:Chapter 08
    00:49:58.662                : en:Chapter 09
    00:57:52.677                : en:Chapter 10
    01:03:34.560                : en:Chapter 11
    01:10:31.685                : en:Chapter 12
    01:17:20.761                : en:Chapter 13
    01:23:27.711                : en:Chapter 14
    01:28:51.617                : en:Chapter 15
    01:34:25.826                : en:Chapter 16
    01:37:59.039                : en:Chapter 17
    01:43:29.786                : en:Chapter 18
    01:51:52.080                : en:Chapter 19
    01:56:59.971                : en:Chapter 20

  • Peso: 33.1 GiB

Sinopsis

Descargar Downton Abbey (2019) REMUX 1080p Latino. Película basada en la aclamada serie ‘Downton Abbey’, escrita y producida por el creador de la misma. El reparto principal de la serie también regresará en sus papeles habituales.

Ficha técnica

Video trailer de la película

Enlaces de descarga

Rip de Bluray

Descargar Downton Abbey (2019) REMUX 1080p Latino




Aportes de DPeliculasHDmega la pass es:dpeliculashdmega.org Aportes de CinemaniaHD la pass es:cinemaniahdd.com
Guardado en : Drama , Historia , Remux

Películas relacionadas

  • After: Amor infinito (2022) AMZN WEB-DL 1080p Latino

    After: Amor infinito (2022) AMZN WEB-DL 1080p Latino

    2022
    After: Amor infinito (2022) AMZN WEB-DL 1080p Latino

    1h 35m 2022

    Descargar After: Amor infinito (2022) AMZN WEB-DL 1080p Latino. El amor de Tessa y Hardin nunca ha sido...

    Director: Castille Landon

    Género: Drama

    Actores: Velizar Nikolaev Biney

  • Blonde (2022) NF WEB-DL 1080p Latino

    Blonde (2022) NF WEB-DL 1080p Latino

    2022
    Blonde (2022) NF WEB-DL 1080p Latino

    2h 46m 2022

    Descargar Blonde (2022) NF WEB-DL 1080p Latino. Basada en el bestseller de la cinco veces finalista al...

    Director: Kristin Bree Calabrese

    Género: Drama

    Actores: Xavier Samuel

  • Borrego: Sal Del Camino (2022) REMUX 1080p Latino

    Borrego: Sal Del Camino (2022) REMUX 1080p Latino

    2022
    Borrego: Sal Del Camino (2022) REMUX 1080p Latino

    1h 42m 2022

    Descargar Borrego: Sal Del Camino (2022) REMUX 1080p Latino. Una joven botánica se traslada a un pequeño...

    Director: Jesse Harris

    Género: Crimen

    Actores: Olivia Trujillo

  • Infiniti (2022) Primera Temporada WEB-DL 1080p Latino

    Infiniti (2022) Primera Temporada WEB-DL 1080p Latino

    2022
    Infiniti (2022) Primera Temporada WEB-DL 1080p Latino

    0h 52m 2022

    La ISS, la Estación Espacial Internacional se ha quedado en silencio. La tripulación está en peligro....

    Director: Stéphane Pannetier

    Género: Drama

    Actores: Vlad Ivanov

descargar Downton Abbey (2019) REMUX 1080p Latino Full 1080p 1080p gratis, Downton Abbey (2019) REMUX 1080p Latino Full 1080p mega 1 link, Downton Abbey (2019) REMUX 1080p Latino Full 1080p pelicula completa, descargar Downton Abbey (2019) REMUX 1080p Latino Full 1080p gratis en mega.

Downton Abbey (2019) REMUX 1080p Latino pelicula full hd, Downton Abbey (2019) REMUX 1080p Latino mega latino, Downton Abbey (2019) REMUX 1080p Latino 4k latino, Downton Abbey (2019) REMUX 1080p Latino pelicula completa, Downton Abbey (2019) REMUX 1080p Latino descargar gratis, descargar Downton Abbey (2019) REMUX 1080p Latino pelicula latino, Downton Abbey (2019) REMUX 1080p Latino 1 link mega, Downton Abbey (2019) REMUX 1080p Latino 1 link google drive, Downton Abbey (2019) REMUX 1080p Latino hd 1080p latino.
Comentarios 0