×

¿Problemas para descargar con Mozilla, EDGE? Deshabilita la opción "Abrir vinculos en una pestaña nueva" tal como lo muestra ésta imagen.

Cuesta Abajo (2020) AMZN Web-DL 1080p Latino

343 vistas

Información de Cuesta Abajo (2020) AMZN Web-DL 1080p Latino

Datos de la película

  • Calidad: WEBDL
  • Audio: Se especifica abajo de la Sinopsis
  • Subtitulos: Español Latino SRT - Ingles SRT
  • Resolución: 1920x800p
  • Formato: MKV
  • Codec: H.264
  • Encoder: CinemaniaHD
  • Mediainfo: Clic para Mostrar Datos Ver
  • Cuesta Abajo (2020) AMZN WebDL 1080p Latino.mkv
    Format                      : Matroska
    Format version              : Version 4
    File size                   : 5.59 GiB
    Duration                    : 1 h 26 min
    Overall bit rate            : 9 291 kb/s
    Movie name                  : Downhill (2020) CinemaniaHDD.Net
    Encoded date                : UTC 2020-05-08 19:51:25
    Writing application         : mkvmerge v46.0.0 ('No Deeper Escape') 64-bit
    Writing library             : libebml v1.3.10 + libmatroska v1.5.2
    Attachments                 : CINEMANIAHD.png

    Video
    ID                          : 1
    Format                      : AVC
    Format/Info                 : Advanced Video Codec
    Format profile              : High@L4
    Format settings             : CABAC / 4 Ref Frames
    Format settings, CABAC      : Yes
    Format settings, Reference  : 4 frames
    Codec ID                    : V_MPEG4/ISO/AVC
    Duration                    : 1 h 26 min
    Bit rate mode               : Constant
    Bit rate                    : 8 266 kb/s
    Nominal bit rate            : 10 000 kb/s
    Width                       : 1 920 pixels
    Height                      : 800 pixels
    Display aspect ratio        : 2.40:1
    Frame rate mode             : Constant
    Frame rate                  : 23.976 (24000/1001) FPS
    Color space                 : YUV
    Chroma subsampling          : 4:2:0
    Bit depth                   : 8 bits
    Scan type                   : Progressive
    Bits/(Pixel*Frame)          : 0.224
    Stream size                 : 4.98 GiB (89%)
    Title                       : Web HD1080p [CinemaniaHDD]
    Default                     : Yes
    Forced                      : Yes
    Color range                 : Limited
    Color primaries             : BT.709
    Transfer characteristics    : BT.709
    Matrix coefficients         : BT.709

    Audio #1
    ID                          : 2
    Format                      : AC-3
    Format/Info                 : Audio Coding 3
    Commercial name             : Dolby Digital
    Codec ID                    : A_AC3
    Duration                    : 1 h 26 min
    Bit rate mode               : Constant
    Bit rate                    : 384 kb/s
    Channel(s)                  : 6 channels
    Channel layout              : L R C LFE Ls Rs
    Sampling rate               : 48.0 kHz
    Frame rate                  : 31.250 FPS (1536 SPF)
    Compression mode            : Lossy
    Delay relative to video     : 1 s 52 ms
    Stream size                 : 237 MiB (4%)
    Title                       : Español Latino [CinemaniaHDD]
    Language                    : Spanish
    Service kind                : Complete Main
    Default                     : Yes
    Forced                      : Yes

    Audio #2
    ID                          : 3
    Format                      : E-AC-3
    Format/Info                 : Enhanced AC-3
    Commercial name             : Dolby Digital Plus
    Codec ID                    : A_EAC3
    Duration                    : 1 h 26 min
    Bit rate mode               : Constant
    Bit rate                    : 640 kb/s
    Channel(s)                  : 6 channels
    Channel layout              : L R C LFE Ls Rs
    Sampling rate               : 48.0 kHz
    Frame rate                  : 31.250 FPS (1536 SPF)
    Compression mode            : Lossy
    Stream size                 : 395 MiB (7%)
    Title                       : Ingles [CinemaniaHDD]
    Language                    : English
    Service kind                : Complete Main
    Default                     : No
    Forced                      : No

    Text #1
    ID                          : 4
    Format                      : UTF-8
    Codec ID                    : S_TEXT/UTF8
    Codec ID/Info               : UTF-8 Plain Text
    Duration                    : 4 s 922 ms
    Bit rate                    : 19 b/s
    Count of elements           : 1
    Stream size                 : 12.0 Bytes (0%)
    Title                       : Forzados-SRT [CinemaniaHDD]
    Language                    : Spanish
    Default                     : Yes
    Forced                      : Yes

    Text #2
    ID                          : 5
    Format                      : UTF-8
    Codec ID                    : S_TEXT/UTF8
    Codec ID/Info               : UTF-8 Plain Text
    Duration                    : 1 h 18 min
    Bit rate                    : 63 b/s
    Count of elements           : 1430
    Stream size                 : 36.4 KiB (0%)
    Title                       : Español-SRT [CinemaniaHDD]
    Language                    : Spanish
    Default                     : No
    Forced                      : No

    Text #3
    ID                          : 6
    Format                      : UTF-8
    Codec ID                    : S_TEXT/UTF8
    Codec ID/Info               : UTF-8 Plain Text
    Duration                    : 1 h 19 min
    Bit rate                    : 71 b/s
    Count of elements           : 1623
    Stream size                 : 41.7 KiB (0%)
    Title                       : Ingles-SRT [CinemaniaHDD]
    Language                    : English
    Default                     : No
    Forced                      : No

    Menu
    00:00:00.000                : en:Studio Logos
    00:00:39.000                : en:A difficult family photo
    00:02:12.000                : en:Title Sequence
    00:02:17.000                : en:Checking in to the hotel
    00:07:48.000                : en:Hitting the slopes
    00:10:11.000                : en:A close call
    00:15:08.000                : en:A dinner date
    00:21:22.000                : en:Lodging a complaint
    00:25:29.000                : en:Growing further apart
    00:26:28.000                : en:A rough morning
    00:30:48.000                : en:Cutting losses
    00:32:06.000                : en:Unexpected guests
    00:43:14.000                : en:Different types of adventure
    00:52:53.000                : en:Finding out who you are
    00:57:43.000                : en:Growing apart
    01:00:05.000                : en:The guys hit the mountain
    01:04:31.000                : en:Black and white choices
    01:06:39.000                : en:Drunk words are sober thoughts
    01:09:56.000                : en:Family dinner
    01:12:25.000                : en:Tackling the beast
    01:18:53.000                : en:Life is all we have
    01:20:03.000                : en:End Credits

  • Peso: 5.59 GiB

Sinopsis

Descargar Cuesta Abajo (2020) AMZN Web-DL 1080p Latino. Apenas escapando de una avalancha durante unas vacaciones familiares de esquí en los Alpes, una pareja casada se ve desarreglada cuando se ven obligados a reevaluar sus vidas y cómo se sienten el uno con el otro.

Audio Español Latino AC3 5.1 DVD – Ingles EAC3 5.1 Amazon

Ficha técnica

Video trailer de la película

Enlaces de descarga

Rip de Bluray

Descargar Cuesta Abajo (2020) AMZN Web-DL 1080p Latino




Aportes de DPeliculasHDmega la pass es:dpeliculashdmega.org Aportes de CinemaniaHD la pass es:cinemaniahdd.com
Guardado en : Comedia , Drama

Películas relacionadas

  • El Perfumista (2022) NF WEB-DL 1080p Latino

    El Perfumista (2022) NF WEB-DL 1080p Latino

    2022
    El Perfumista (2022) NF WEB-DL 1080p Latino

    1h 36m 2022

    Descargar El Perfumista (2022) NF WEB-DL 1080p Latino. Para recuperar su sentido del olfato y el afecto...

    Director: Nils Willbrandt

    Género: Crimen

    Actores: Sólveig Arnarsdóttir

  • La familia Monster (2022) HD 1080p Latino

    La familia Monster (2022) HD 1080p Latino

    2022
    La familia Monster (2022) HD 1080p Latino

    1h 49m 2022

    Descargar La familia Monster (2022) HD 1080p Latino. Reboot de "The Munsters", que sigue las desventuras...

    Director: Rob Zombie

    Género: Comedia

    Actores: Tomas Boykin

  • La familia Monster (2022) REMUX 1080p Latino

    La familia Monster (2022) REMUX 1080p Latino

    2022
    La familia Monster (2022) REMUX 1080p Latino

    1h 49m 2022

    Descargar La familia Monster (2022) REMUX 1080p Latino. Reboot de "The Munsters", que sigue las desventuras...

    Director: Rob Zombie

    Género: Comedia

    Actores: Tomas Boykin

  • Cobra Kai (2022) Temporada 5 NF WEB-DL 1080p Latino

    Cobra Kai (2022) Temporada 5 NF WEB-DL 1080p Latino

    2018
    Cobra Kai (2022) Temporada 5 NF WEB-DL 1080p Latino

    0h 30m 2018

    Descargar Cobra Kai (2022) Temporada 5 NF WEB-DL 1080p Latino. Cobra Kai tiene lugar treinta y cuatro...

    Director: Josh Heald

    Género: Action & Adventure

    Actores: Xolo Mariduena

descargar Cuesta Abajo (2020) AMZN Web-DL 1080p Latino WEBDL 1080p gratis, Cuesta Abajo (2020) AMZN Web-DL 1080p Latino WEBDL mega 1 link, Cuesta Abajo (2020) AMZN Web-DL 1080p Latino WEBDL pelicula completa, descargar Cuesta Abajo (2020) AMZN Web-DL 1080p Latino WEBDL gratis en mega.

Cuesta Abajo (2020) AMZN Web-DL 1080p Latino pelicula full hd, Cuesta Abajo (2020) AMZN Web-DL 1080p Latino mega latino, Cuesta Abajo (2020) AMZN Web-DL 1080p Latino 4k latino, Cuesta Abajo (2020) AMZN Web-DL 1080p Latino pelicula completa, Cuesta Abajo (2020) AMZN Web-DL 1080p Latino descargar gratis, descargar Cuesta Abajo (2020) AMZN Web-DL 1080p Latino pelicula latino, Cuesta Abajo (2020) AMZN Web-DL 1080p Latino 1 link mega, Cuesta Abajo (2020) AMZN Web-DL 1080p Latino 1 link google drive, Cuesta Abajo (2020) AMZN Web-DL 1080p Latino hd 1080p latino.
Comentarios 0