×

¿Problemas para descargar con Mozilla, EDGE? Deshabilita la opción "Abrir vinculos en una pestaña nueva" tal como lo muestra ésta imagen.

Cuesta Abajo (2020) HD 1080p Latino

392 vistas

Información de Cuesta Abajo (2020) HD 1080p Latino

Datos de la película

  • Calidad: 1080p
  • Audio: Español Latino AC3 5.1 BLURAY - Ingles AC3 5.1 BLURAY
  • Subtitulos: Español Latino SRT - Ingles SRT
  • Resolución: 1920x804p
  • Formato: MKV
  • Codec: H.264
  • Encoder: CinemaniaHD
  • Mediainfo: Clic para Mostrar Datos Ver
  • Cuesta Abajo (2020) 1080p Latino.mkv
    Format                      : Matroska
    Format version              : Version 4
    File size                   : 2.74 GiB
    Duration                    : 1 h 26 min
    Overall bit rate            : 4 557 kb/s
    Movie name                  : Downhill (2020) CinemaniaHDD.Net
    Encoded date                : UTC 2020-05-15 07:38:51
    Writing application         : mkvmerge v42.0.0 ('Overtime') 64-bit
    Writing library             : libebml v1.3.10 + libmatroska v1.5.2
    Attachments                 : CINEMANIAHD.png

    Video
    ID                          : 1
    Format                      : AVC
    Format/Info                 : Advanced Video Codec
    Format profile              : High@L4.1
    Format settings             : CABAC / 5 Ref Frames
    Format settings, CABAC      : Yes
    Format settings, Reference  : 5 frames
    Codec ID                    : V_MPEG4/ISO/AVC
    Duration                    : 1 h 26 min
    Bit rate                    : 3 500 kb/s
    Width                       : 1 920 pixels
    Height                      : 804 pixels
    Display aspect ratio        : 2.40:1
    Frame rate mode             : Constant
    Frame rate                  : 23.976 (24000/1001) FPS
    Color space                 : YUV
    Chroma subsampling          : 4:2:0
    Bit depth                   : 8 bits
    Scan type                   : Progressive
    Bits/(Pixel*Frame)          : 0.095
    Stream size                 : 2.09 GiB (76%)
    Title                       : HD1080p [CinemaniaHDD]
    Writing library             : x264 core 157 r2935 545de2f
    Encoding settings           : cabac=1 / ref=5 / deblock=1:-2:-2 / analyse=0x3:0x113 / me=hex / subme=8 / psy=1 / psy_rd=1.00:0.25 / mixed_ref=1 / me_range=16 / chroma_me=1 / trellis=2 / 8x8dct=1 / cqm=0 / deadzone=6,6 / fast_pskip=1 / chroma_qp_offset=-4 / threads=24 / lookahead_threads=4 / sliced_threads=0 / nr=0 / decimate=0 / interlaced=0 / bluray_compat=0 / constrained_intra=0 / bframes=3 / b_pyramid=2 / b_adapt=1 / b_bias=0 / direct=3 / weightb=1 / open_gop=0 / weightp=2 / keyint=240 / keyint_min=24 / scenecut=40 / intra_refresh=0 / rc_lookahead=50 / rc=abr / mbtree=1 / bitrate=3500 / ratetol=1.0 / qcomp=0.80 / qpmin=0 / qpmax=69 / qpstep=4 / vbv_maxrate=62500 / vbv_bufsize=78125 / nal_hrd=none / filler=0 / ip_ratio=1.10 / aq=1:0.50
    Default                     : Yes
    Forced                      : Yes
    Color range                 : Limited
    Color primaries             : BT.709
    Transfer characteristics    : BT.709
    Matrix coefficients         : BT.709

    Audio #1
    ID                          : 2
    Format                      : AC-3
    Format/Info                 : Audio Coding 3
    Commercial name             : Dolby Digital
    Codec ID                    : A_AC3
    Duration                    : 1 h 26 min
    Bit rate mode               : Constant
    Bit rate                    : 640 kb/s
    Channel(s)                  : 6 channels
    Channel layout              : L R C LFE Ls Rs
    Sampling rate               : 48.0 kHz
    Frame rate                  : 31.250 FPS (1536 SPF)
    Compression mode            : Lossy
    Delay relative to video     : -5 ms
    Stream size                 : 395 MiB (14%)
    Title                       : Español Latino [CinemaniaHDD]s
    Language                    : Spanish
    Service kind                : Complete Main
    Default                     : Yes
    Forced                      : Yes

    Audio #2
    ID                          : 3
    Format                      : AC-3
    Format/Info                 : Audio Coding 3
    Commercial name             : Dolby Digital
    Codec ID                    : A_AC3
    Duration                    : 1 h 26 min
    Bit rate mode               : Constant
    Bit rate                    : 448 kb/s
    Channel(s)                  : 6 channels
    Channel layout              : L R C LFE Ls Rs
    Sampling rate               : 48.0 kHz
    Frame rate                  : 31.250 FPS (1536 SPF)
    Compression mode            : Lossy
    Delay relative to video     : -5 ms
    Stream size                 : 276 MiB (10%)
    Title                       : Ingles [CinemaniaHDD]
    Language                    : English
    Service kind                : Complete Main
    Default                     : No
    Forced                      : No

    Text #1
    ID                          : 4
    Format                      : UTF-8
    Codec ID                    : S_TEXT/UTF8
    Codec ID/Info               : UTF-8 Plain Text
    Duration                    : 4 s 922 ms
    Bit rate                    : 19 b/s
    Count of elements           : 1
    Stream size                 : 12.0 Bytes (0%)
    Title                       : Forzados-SRT [CinemaniaHDD]
    Language                    : Spanish
    Default                     : Yes
    Forced                      : Yes

    Text #2
    ID                          : 5
    Format                      : UTF-8
    Codec ID                    : S_TEXT/UTF8
    Codec ID/Info               : UTF-8 Plain Text
    Duration                    : 1 h 18 min
    Bit rate                    : 63 b/s
    Count of elements           : 1430
    Stream size                 : 36.4 KiB (0%)
    Title                       : Español-SRT [CinemaniaHDD]
    Language                    : Spanish
    Default                     : No
    Forced                      : No

    Text #3
    ID                          : 6
    Format                      : UTF-8
    Codec ID                    : S_TEXT/UTF8
    Codec ID/Info               : UTF-8 Plain Text
    Duration                    : 1 h 18 min
    Bit rate                    : 66 b/s
    Count of elements           : 1538
    Stream size                 : 38.4 KiB (0%)
    Title                       : Ingles-SRT [CinemaniaHDD]
    Language                    : English
    Default                     : No
    Forced                      : No

    Menu
    00:00:00.000                : :Chapter 1
    00:02:11.006                : :Chapter 2
    00:05:26.868                : :Chapter 3
    00:07:14.059                : :Chapter 4
    00:10:10.026                : :Chapter 5
    00:13:24.637                : :Chapter 6
    00:16:49.967                : :Chapter 7
    00:21:21.155                : :Chapter 8
    00:25:27.693                : :Chapter 9
    00:27:34.486                : :Chapter 10
    00:30:53.935                : :Chapter 11
    00:35:20.827                : :Chapter 12
    00:40:37.018                : :Chapter 13
    00:42:51.360                : :Chapter 14
    00:44:56.444                : :Chapter 15
    00:47:53.412                : :Chapter 16
    00:51:54.153                : :Chapter 17
    00:56:24.798                : :Chapter 18
    00:58:52.571                : :Chapter 19
    01:04:29.449                : :Chapter 20
    01:09:54.774                : :Chapter 21
    01:13:36.495                : :Chapter 22
    01:16:30.336                : :Chapter 23
    01:20:00.921                : :Chapter 24

  • Peso: 2.74 GiB

Sinopsis

Descargar Cuesta Abajo (2020) HD 1080p Latino. Apenas escapando de una avalancha durante unas vacaciones familiares de esquí en los Alpes, una pareja casada se ve desarreglada cuando se ven obligados a reevaluar sus vidas y cómo se sienten el uno con el otro.

Ficha técnica

Video trailer de la película

Enlaces de descarga

Rip de Bluray

Descargar Cuesta Abajo (2020) HD 1080p Latino




Aportes de DPeliculasHDmega la pass es:dpeliculashdmega.org Aportes de CinemaniaHD la pass es:cinemaniahdd.com
Guardado en : Comedia , Drama , HD 1080p

Películas relacionadas

  • Shrek 2 (2004) REMUX 4K HDR Latino – CMHDD

    Shrek 2 (2004) REMUX 4K HDR Latino – CMHDD

    2004
    Shrek 2 (2004) REMUX 4K HDR Latino – CMHDD

    1h 32m 2004

    Cuando Shrek y la princesa Fiona regresan de su luna de miel, los padres de ella los invitan a visitar...

    Director: Matt Aspbury

    Género: Animación

    Actores: Wendy Bilanski

  • Interstellar (2014) REMUX [IMAX] 4K HDR Larino – CMHDD

    Interstellar (2014) REMUX [IMAX] 4K HDR Larino – CMHDD

    2014
    Interstellar (2014) REMUX [IMAX] 4K HDR Larino – CMHDD

    2h 49m 2014

    Narra las aventuras de un grupo de exploradores que hacen uso de un agujero de gusano recientemente descubierto...

    Director: Valgeir Gunnlaugsson

    Género: Aventura

    Actores: William Patrick Brown

  • Rick and Morty (2022) Temporada 6 WEB-DL 1080p Latino

    Rick and Morty (2022) Temporada 6 WEB-DL 1080p Latino

    2013
    Rick and Morty (2022) Temporada 6 WEB-DL 1080p Latino

    0h 22m 2013

    Comedia animada que narra las aventuras de un científico loco Rick Sánchez, que regresa después de...

    Director: Justin Roiland

    Género: Action & Adventure

    Actores: Spencer Grammer

descargar Cuesta Abajo (2020) HD 1080p Latino 1080p 1080p gratis, Cuesta Abajo (2020) HD 1080p Latino 1080p mega 1 link, Cuesta Abajo (2020) HD 1080p Latino 1080p pelicula completa, descargar Cuesta Abajo (2020) HD 1080p Latino 1080p gratis en mega.

Cuesta Abajo (2020) HD 1080p Latino pelicula full hd, Cuesta Abajo (2020) HD 1080p Latino mega latino, Cuesta Abajo (2020) HD 1080p Latino 4k latino, Cuesta Abajo (2020) HD 1080p Latino pelicula completa, Cuesta Abajo (2020) HD 1080p Latino descargar gratis, descargar Cuesta Abajo (2020) HD 1080p Latino pelicula latino, Cuesta Abajo (2020) HD 1080p Latino 1 link mega, Cuesta Abajo (2020) HD 1080p Latino 1 link google drive, Cuesta Abajo (2020) HD 1080p Latino hd 1080p latino.
Comentarios 0