×

¿Problemas para descargar con Mozilla, EDGE? Deshabilita la opción "Abrir vinculos en una pestaña nueva" tal como lo muestra ésta imagen.

Downfall (2004) REMUX 1080p Latino – CMHDD

336 vistas

Información de Downfall (2004) REMUX 1080p Latino – CMHDD

Datos de la película

  • Calidad: Full 1080p
  • Audio: Se especifica abajo de la Sinopsis
  • Subtitulos: Español Latino SRT
  • Resolución: 1920x1080p
  • Formato: MKV
  • Codec: H.264
  • Encoder: Dracarys
  • Mediainfo: Clic para Mostrar Datos Ver
  • Format                      : Matroska
    Format version              : Version 4
    File size                   : 14.6 GiB
    Duration                    : 2 h 35 min
    Overall bit rate mode       : Variable
    Overall bit rate            : 13.5 Mb/s
    Movie name                  : Downfall (2004) REMUX 1080p Latino - CMHDD
    Encoded date                : UTC 2020-07-30 17:27:45
    Writing application         : mkvmerge v46.0.0 ('No Deeper Escape') 64-bit
    Writing library             : libebml v1.3.10 + libmatroska v1.5.2

    Video
    ID                          : 1
    Format                      : AVC
    Format/Info                 : Advanced Video Codec
    Format profile              : Main@L4.1
    Format settings             : CABAC / 2 Ref Frames
    Format settings, CABAC      : Yes
    Format settings, Reference  : 2 frames
    Format settings, GOP        : M=3, N=24
    Codec ID                    : V_MPEG4/ISO/AVC
    Duration                    : 2 h 35 min
    Bit rate mode               : Variable
    Bit rate                    : 11.3 Mb/s
    Maximum bit rate            : 35.0 Mb/s
    Width                       : 1 920 pixels
    Height                      : 1 080 pixels
    Display aspect ratio        : 16:9
    Frame rate mode             : Constant
    Frame rate                  : 24.000 FPS
    Color space                 : YUV
    Chroma subsampling          : 4:2:0
    Bit depth                   : 8 bits
    Scan type                   : Progressive
    Bits/(Pixel*Frame)          : 0.228
    Stream size                 : 12.3 GiB (84%)
    Default                     : Yes
    Forced                      : No

    Audio #1
    ID                          : 2
    Format                      : AC-3
    Format/Info                 : Audio Coding 3
    Commercial name             : Dolby Digital
    Codec ID                    : A_AC3
    Duration                    : 1 h 12 min
    Bit rate mode               : Constant
    Bit rate                    : 192 kb/s
    Channel(s)                  : 2 channels
    Channel layout              : L R
    Sampling rate               : 48.0 kHz
    Frame rate                  : 31.250 FPS (1536 SPF)
    Compression mode            : Lossy
    Stream size                 : 99.1 MiB (1%)
    Language                    : Spanish
    Service kind                : Complete Main
    Default                     : Yes
    Forced                      : No

    Audio #2
    ID                          : 3
    Format                      : DTS XLL
    Format/Info                 : Digital Theater Systems
    Commercial name             : DTS-HD Master Audio
    Codec ID                    : A_DTS
    Duration                    : 2 h 35 min
    Bit rate mode               : Variable
    Bit rate                    : 2 056 kb/s
    Channel(s)                  : 6 channels
    Channel layout              : C L R Ls Rs LFE
    Sampling rate               : 48.0 kHz
    Frame rate                  : 93.750 FPS (512 SPF)
    Bit depth                   : 24 bits
    Compression mode            : Lossless
    Stream size                 : 2.23 GiB (15%)
    Language                    : German
    Default                     : No
    Forced                      : No

    Text #1
    ID                          : 4
    Format                      : PGS
    Muxing mode                 : zlib
    Codec ID                    : S_HDMV/PGS
    Codec ID/Info               : Picture based subtitle format used on BDs/HD-DVDs
    Duration                    : 2 h 30 min
    Bit rate                    : 41.2 kb/s
    Count of elements           : 2272
    Stream size                 : 44.4 MiB (0%)
    Language                    : Spanish
    Default                     : No
    Forced                      : No

    Text #2
    ID                          : 5
    Format                      : UTF-8
    Codec ID                    : S_TEXT/UTF8
    Codec ID/Info               : UTF-8 Plain Text
    Duration                    : 2 h 30 min
    Bit rate                    : 42 b/s
    Count of elements           : 1136
    Stream size                 : 47.1 KiB (0%)
    Language                    : Spanish
    Default                     : No
    Forced                      : No
     

  • Peso: 14.6 GiB

Sinopsis

Berlín, abril de 1945. En las calles de Berlín se libra una encarnizada batalla. Hitler y sus fieles se han atrincherado en un búnker. Entre ellos se encuentra Traudl Junge, la secretaria personal del Führer. En el exterior, la situación se recrudece. A pesar de que Berlín ya no puede resistir más, Hitler se niega a abandonar la ciudad y, acompañado de Eva Braun, prepara su despedida.

 

 

Latino: AC3 2.0  –  Alemán: DTS-HD MA 5.1

Ficha técnica

Video trailer de la película

Enlaces de descarga

Rip de Bluray

Descargar Downfall (2004) REMUX 1080p Latino – CMHDD




Aportes de DPeliculasHDmega la pass es:dpeliculashdmega.org Aportes de CinemaniaHD la pass es:cinemaniahdd.com
Guardado en : Bélica , Drama , Historia , Remux

Películas relacionadas

descargar Downfall (2004) REMUX 1080p Latino – CMHDD Full 1080p 1080p gratis, Downfall (2004) REMUX 1080p Latino – CMHDD Full 1080p mega 1 link, Downfall (2004) REMUX 1080p Latino – CMHDD Full 1080p pelicula completa, descargar Downfall (2004) REMUX 1080p Latino – CMHDD Full 1080p gratis en mega.

Downfall (2004) REMUX 1080p Latino – CMHDD pelicula full hd, Downfall (2004) REMUX 1080p Latino – CMHDD mega latino, Downfall (2004) REMUX 1080p Latino – CMHDD 4k latino, Downfall (2004) REMUX 1080p Latino – CMHDD pelicula completa, Downfall (2004) REMUX 1080p Latino – CMHDD descargar gratis, descargar Downfall (2004) REMUX 1080p Latino – CMHDD pelicula latino, Downfall (2004) REMUX 1080p Latino – CMHDD 1 link mega, Downfall (2004) REMUX 1080p Latino – CMHDD 1 link google drive, Downfall (2004) REMUX 1080p Latino – CMHDD hd 1080p latino.
Comentarios 1
  • ocpgaiden - 31 julio, 2020

    Excelente peliculas, gracias y saludos