Dos tórtolos (2020) NF WEB-DL 1080p Latino

20 vistas
1 estrella2 estrellas3 estrellas4 estrellas5 estrellas (2 votos, promedio: 5,00 de 5)
Cargando…

Información de Dos tórtolos (2020) NF WEB-DL 1080p Latino

Datos de la película

  • Calidad: WEBDL
  • Audio: Español Latino AC3 5.1 Netflix - Ingles AC3 5.1 Netflix
  • Subtitulos: Español Latino SRT- FORZADOS SRT
  • Resolución: 1920x1080
  • Formato: MKV
  • Codec: H.264
  • Encoder: cinemaniahdd
  • Mediainfo: Clic para Mostrar Datos Ver
  • Dos tórtolos (2020) NF WEB-DL 1080p Latino.mkv
    Format                      : Matroska
    Format version              : Version 4
    File size                   : 4.81 GiB
    Duration                    : 1 h 27 min
    Overall bit rate mode       : Variable
    Overall bit rate            : 7 894 kb/s
    Movie name                  : Dos tórtolos (2020) - CinemaniaHDD.Net
    Encoded date                : UTC 2020-05-22 23:49:28
    Writing application         : mkvmerge v46.0.0 ('No Deeper Escape') 64-bit
    Writing library             : libebml v1.3.10 + libmatroska v1.5.2

    Video
    ID                          : 1
    Format                      : AVC
    Format/Info                 : Advanced Video Codec
    Format profile              : High@L4
    Format settings             : CABAC / 4 Ref Frames
    Format settings, CABAC      : Yes
    Format settings, Reference  : 4 frames
    Codec ID                    : V_MPEG4/ISO/AVC
    Duration                    : 1 h 27 min
    Bit rate mode               : Variable
    Bit rate                    : 7 126 kb/s
    Maximum bit rate            : 20.0 Mb/s
    Width                       : 1 920 pixels
    Height                      : 1 080 pixels
    Display aspect ratio        : 16:9
    Frame rate mode             : Constant
    Frame rate                  : 23.976 (24000/1001) FPS
    Color space                 : YUV
    Chroma subsampling          : 4:2:0
    Bit depth                   : 8 bits
    Scan type                   : Progressive
    Bits/(Pixel*Frame)          : 0.143
    Stream size                 : 4.34 GiB (90%)
    Title                       : CinemaniaHDD
    Writing library             : x264 core 148 r2717 0d2410d
    Encoding settings           : cabac=1 / ref=4 / deblock=1:0:0 / analyse=0x3:0x111 / me=umh / subme=10 / psy=1 / psy_rd=1.00:0.00 / mixed_ref=1 / me_range=120 / chroma_me=1 / trellis=2 / 8x8dct=1 / cqm=0 / deadzone=21,11 / fast_pskip=1 / chroma_qp_offset=-2 / threads=6 / lookahead_threads=1 / sliced_threads=0 / nr=0 / decimate=1 / interlaced=0 / bluray_compat=0 / stitchable=1 / constrained_intra=0 / bframes=16 / b_pyramid=2 / b_adapt=2 / b_bias=0 / direct=3 / weightb=1 / open_gop=0 / weightp=2 / keyint=240 / keyint_min=121 / scenecut=0 / intra_refresh=0 / rc_lookahead=240 / rc=crf / mbtree=1 / crf=16.0 / qcomp=0.50 / qpmin=6 / qpmax=51 / qpstep=4 / vbv_maxrate=20000 / vbv_bufsize=25000 / crf_max=0.0 / nal_hrd=vbr / filler=0 / ip_ratio=1.40 / aq=1:0.80
    Default                     : Yes
    Forced                      : No

    Audio #1
    ID                          : 2
    Format                      : AC-3
    Format/Info                 : Audio Coding 3
    Commercial name             : Dolby Digital
    Codec ID                    : A_AC3
    Duration                    : 1 h 27 min
    Bit rate mode               : Constant
    Bit rate                    : 384 kb/s
    Channel(s)                  : 6 channels
    Channel layout              : L R C LFE Ls Rs
    Sampling rate               : 48.0 kHz
    Frame rate                  : 31.250 FPS (1536 SPF)
    Compression mode            : Lossy
    Stream size                 : 240 MiB (5%)
    Title                       : Español latino [CinemaniaHDD]
    Language                    : Spanish
    Service kind                : Complete Main
    Default                     : Yes
    Forced                      : No

    Audio #2
    ID                          : 3
    Format                      : AC-3
    Format/Info                 : Audio Coding 3
    Commercial name             : Dolby Digital
    Codec ID                    : A_AC3
    Duration                    : 1 h 27 min
    Bit rate mode               : Constant
    Bit rate                    : 384 kb/s
    Channel(s)                  : 6 channels
    Channel layout              : L R C LFE Ls Rs
    Sampling rate               : 48.0 kHz
    Frame rate                  : 31.250 FPS (1536 SPF)
    Compression mode            : Lossy
    Stream size                 : 240 MiB (5%)
    Title                       : Inglés [CinemaniaHDD]
    Language                    : English
    Service kind                : Complete Main
    Default                     : No
    Forced                      : No

    Text #1
    ID                          : 4
    Format                      : UTF-8
    Codec ID                    : S_TEXT/UTF8
    Codec ID/Info               : UTF-8 Plain Text
    Duration                    : 1 h 25 min
    Bit rate                    : 0 b/s
    Count of elements           : 13
    Stream size                 : 355 Bytes (0%)
    Title                       : Forzados [CinemaniaHDD]
    Language                    : Spanish
    Default                     : Yes
    Forced                      : Yes

    Text #2
    ID                          : 5
    Format                      : UTF-8
    Codec ID                    : S_TEXT/UTF8
    Codec ID/Info               : UTF-8 Plain Text
    Duration                    : 1 h 25 min
    Bit rate                    : 70 b/s
    Count of elements           : 1448
    Stream size                 : 44.1 KiB (0%)
    Title                       : Español latino [CinemaniaHDD]
    Language                    : Spanish
    Default                     : No
    Forced                      : No

    Text #3
    ID                          : 6
    Format                      : UTF-8
    Codec ID                    : S_TEXT/UTF8
    Codec ID/Info               : UTF-8 Plain Text
    Duration                    : 1 h 20 min
    Bit rate                    : 99 b/s
    Count of elements           : 1837
    Stream size                 : 58.8 KiB (0%)
    Title                       : Inglés [CinemaniaHDD]
    Language                    : English
    Default                     : No
    Forced                      : No

     

  • Peso: 4.81 GiB

Sinopsis

Iban por el carril rápido a la separación, hasta que terminan involucrados en un homicidio. Ahora, la única meta es encontrar al verdadero culpable para salvarse.

Ficha técnica

Video trailer de la película

Enlaces de descarga

Rip de Bluray

Descargar Dos tórtolos (2020) NF WEB-DL 1080p Latino




Aportes de DPeliculasHDmega la pass es:dpeliculashdmega.org Aportes de CinemaniaHD la pass es:cinemaniahdd.com
Guardado en : Acción , Comedia , Netflix , Romance

Películas relacionadas

  • Rápido y Furioso 2 (2003) HD 1080p Latino – CMHDD

    Rápido y Furioso 2 (2003) HD 1080p Latino – CMHDD

    2003
    Rápido y Furioso 2 (2003) HD 1080p Latino – CMHDD

    0.0 1h 45m 2003

    Secuela de "A todo gas" (The Fast and the Furious). Brian O'Connor, un policía caído en desgracia,...

    Director: Terry Leonard

    Género: Acción

    Actores: Zachary L. Mann

  • Rápido y Furioso 3 (2006) Full HD 1080p Latino – CMHDD

    Rápido y Furioso 3 (2006) Full HD 1080p Latino – CMHDD

    2006
    Rápido y Furioso 3 (2006) Full HD 1080p Latino – CMHDD

    0.0 1h 44m 2006

    Shaun Boswell es un chico que no acaba de encajar en ningún grupo. Su única conexión con el mundo...

    Director: Valeria Migliassi Collins

    Género: Acción

    Actores: Zachery Ty Bryan

  • Rápido y Furioso 3 (2006) REMUX 1080p Latino – CMHDD

    Rápido y Furioso 3 (2006) REMUX 1080p Latino – CMHDD

    2006
    Rápido y Furioso 3 (2006) REMUX 1080p Latino – CMHDD

    0.0 1h 44m 2006

    Shaun Boswell es un chico que no acaba de encajar en ningún grupo. Su única conexión con el mundo...

    Director: Valeria Migliassi Collins

    Género: Acción

    Actores: Zachery Ty Bryan

  • Rápido y Furioso 8 (2017) HD 1080p Latino – CMHDD

    Rápido y Furioso 8 (2017) HD 1080p Latino – CMHDD

    2017
    Rápido y Furioso 8 (2017) HD 1080p Latino – CMHDD

    0.0 2h 16m 2017

    La carrera ha comenzado. Dom Toretto y su equipo volverán en esta ocasión con más ganas de guerra...

    Director: Spiro Razatos

    Género: Acción

    Actores: Zachary Vazquez

Comentarios 2
  • Juan Pablo - 24 mayo, 2020

    no se puede descargar, estuve esperando unas semanas porque no puedo descargar ninguna pelicula nose porque, siempre use el Jdownload y ultimamente me salta omitidas no tiene persmiso para descargar esto y tambien me sale que no hay conexión lo pueden arreglar porfavor.

    • Dracarys - 24 mayo, 2020

      Drive ya no deja descargar de JD. tienes que usar el navegador… eso es cambio de Google no de nosotros