×

¿Problemas para descargar con Mozilla, EDGE? Deshabilita la opción "Abrir vinculos en una pestaña nueva" tal como lo muestra ésta imagen.

Bad Boys (1995) PLACEBO 1080p [MultiDoblaje] Latino

3.835 vistas

Información de Bad Boys (1995) PLACEBO 1080p [MultiDoblaje] Latino

Datos de la película

  • Calidad: Full 1080p
  • Audio: Se especifica abajo de la Sinopsis
  • Subtitulos: Español Latino SRT- FORZADOS SRT
  • Resolución: 1920X1080p
  • Formato: MKV
  • Codec: H.264
  • Encoder: cinemaniahdd
  • Mediainfo: Clic para Mostrar Datos Ver
  • Dos policías rebeldes (1995) PLACEBO 1080p Latino.mkv
    Format                      : Matroska
    Format version              : Version 4
    File size                   : 9.86 GiB
    Duration                    : 1 h 58 min
    Overall bit rate            : 11.9 Mb/s
    Movie name                  : Dos policías rebeldes (1995) - CinemaniaHDD.Net
    Encoded date                : UTC 2020-03-28 20:25:50
    Writing application         : mkvmerge v42.0.0 ('Overtime') 64-bit
    Writing library             : libebml v1.3.10 + libmatroska v1.5.2

    Video
    ID                          : 1
    Format                      : AVC
    Format/Info                 : Advanced Video Codec
    Format profile              : High@L4.1
    Format settings             : CABAC / 4 Ref Frames
    Format settings, CABAC      : Yes
    Format settings, ReFrames   : 4 frames
    Codec ID                    : V_MPEG4/ISO/AVC
    Duration                    : 1 h 58 min
    Bit rate                    : 9 431 kb/s
    Width                       : 1 920 pixels
    Height                      : 1 080 pixels
    Display aspect ratio        : 16:9
    Frame rate mode             : Constant
    Frame rate                  : 23.976 (24000/1001) FPS
    Color space                 : YUV
    Chroma subsampling          : 4:2:0
    Bit depth                   : 8 bits
    Scan type                   : Progressive
    Bits/(Pixel*Frame)          : 0.190
    Stream size                 : 7.83 GiB (79%)
    Title                       : CinemaniaHDD
    Writing library             : x264 core 148 r2708 86b7198
    Encoding settings           : cabac=1 / ref=4 / deblock=1:0:0 / analyse=0x3:0x133 / me=esa / subme=10 / psy=1 / psy_rd=1.00:0.00 / mixed_ref=1 / me_range=24 / chroma_me=1 / trellis=2 / 8x8dct=1 / cqm=0 / deadzone=21,11 / fast_pskip=1 / chroma_qp_offset=-2 / threads=34 / lookahead_threads=5 / sliced_threads=0 / nr=0 / decimate=1 / interlaced=0 / bluray_compat=0 / constrained_intra=0 / bframes=8 / b_pyramid=2 / b_adapt=2 / b_bias=0 / direct=3 / weightb=1 / open_gop=0 / weightp=2 / keyint=240 / keyint_min=24 / scenecut=40 / intra_refresh=0 / rc_lookahead=60 / rc=crf / mbtree=1 / crf=20.0 / qcomp=0.60 / qpmin=0 / qpmax=69 / qpstep=4 / vbv_maxrate=62500 / vbv_bufsize=78125 / crf_max=0.0 / nal_hrd=none / filler=0 / ip_ratio=1.40 / aq=1:1.00
    Language                    : English
    Default                     : Yes
    Forced                      : No
    Color range                 : Limited
    Color primaries             : BT.709
    Transfer characteristics    : BT.709
    Matrix coefficients         : BT.709

    Audio #1
    ID                          : 2
    Format                      : AC-3
    Format/Info                 : Audio Coding 3
    Commercial name             : Dolby Digital
    Codec ID                    : A_AC3
    Duration                    : 1 h 58 min
    Bit rate mode               : Constant
    Bit rate                    : 256 kb/s
    Channel(s)                  : 2 channels
    Channel layout              : L R
    Sampling rate               : 48.0 kHz
    Frame rate                  : 31.250 FPS (1536 SPF)
    Bit depth                   : 16 bits
    Compression mode            : Lossy
    Stream size                 : 218 MiB (2%)
    Title                       : Español latino - Doblaje Original [CinemaniaHDD]
    Language                    : Spanish
    Service kind                : Complete Main
    Default                     : Yes
    Forced                      : No

    Audio #2
    ID                          : 3
    Format                      : AC-3
    Format/Info                 : Audio Coding 3
    Commercial name             : Dolby Digital
    Codec ID                    : A_AC3
    Duration                    : 1 h 58 min
    Bit rate mode               : Constant
    Bit rate                    : 640 kb/s
    Channel(s)                  : 6 channels
    Channel layout              : L R C LFE Ls Rs
    Sampling rate               : 48.0 kHz
    Frame rate                  : 31.250 FPS (1536 SPF)
    Bit depth                   : 16 bits
    Compression mode            : Lossy
    Stream size                 : 544 MiB (5%)
    Title                       : Español latino - Redoblaje [CinemaniaHDD]
    Language                    : Spanish
    Service kind                : Complete Main
    Default                     : No
    Forced                      : No

    Audio #3
    ID                          : 4
    Format                      : DTS
    Format/Info                 : Digital Theater Systems
    Codec ID                    : A_DTS
    Duration                    : 1 h 58 min
    Bit rate mode               : Constant
    Bit rate                    : 1 509 kb/s
    Channel(s)                  : 6 channels
    Channel layout              : C L R Ls Rs LFE
    Sampling rate               : 48.0 kHz
    Frame rate                  : 93.750 FPS (512 SPF)
    Bit depth                   : 24 bits
    Compression mode            : Lossy
    Stream size                 : 1.25 GiB (13%)
    Title                       : Inglés [CinemaniaHDD]
    Language                    : English
    Default                     : No
    Forced                      : No

    Text #1
    ID                          : 5
    Format                      : UTF-8
    Codec ID                    : S_TEXT/UTF8
    Codec ID/Info               : UTF-8 Plain Text
    Duration                    : 8 min 57 s
    Bit rate                    : 0 b/s
    Count of elements           : 3
    Stream size                 : 45.0 Bytes (0%)
    Title                       : Forzados [CinemaniaHDD]
    Language                    : Spanish
    Default                     : Yes
    Forced                      : Yes

    Text #2
    ID                          : 6
    Format                      : UTF-8
    Codec ID                    : S_TEXT/UTF8
    Codec ID/Info               : UTF-8 Plain Text
    Duration                    : 1 h 54 min
    Bit rate                    : 66 b/s
    Count of elements           : 1670
    Stream size                 : 55.6 KiB (0%)
    Title                       : Español latino [CinemaniaHDD]
    Language                    : Spanish
    Default                     : No
    Forced                      : No

    Text #3
    ID                          : 7
    Format                      : PGS
    Muxing mode                 : zlib
    Codec ID                    : S_HDMV/PGS
    Codec ID/Info               : Picture based subtitle format used on BDs/HD-DVDs
    Duration                    : 1 h 54 min
    Bit rate                    : 37.8 kb/s
    Count of elements           : 3216
    Stream size                 : 30.8 MiB (0%)
    Title                       : Español latino - PGS [CinemaniaHDD]
    Language                    : Spanish
    Default                     : No
    Forced                      : No

    Text #4
    ID                          : 8
    Format                      : PGS
    Muxing mode                 : zlib
    Codec ID                    : S_HDMV/PGS
    Codec ID/Info               : Picture based subtitle format used on BDs/HD-DVDs
    Duration                    : 1 h 54 min
    Bit rate                    : 38.8 kb/s
    Count of elements           : 3318
    Stream size                 : 31.6 MiB (0%)
    Title                       : Inglés - PGS [CinemaniaHDD]
    Language                    : English
    Default                     : No
    Forced                      : No

    Menu
    00:00:00.000                : :Chapter 1
    00:06:37.105                : :Chapter 2
    00:15:29.303                : :Chapter 3
    00:20:50.624                : :Chapter 4
    00:29:11.416                : :Chapter 5
    00:35:19.993                : :Chapter 6
    00:42:19.787                : :Chapter 7
    00:50:59.056                : :Chapter 8
    00:59:15.719                : :Chapter 9
    01:04:30.867                : :Chapter 10
    01:13:50.801                : :Chapter 11
    01:19:42.486                : :Chapter 12
    01:27:59.524                : :Chapter 13
    01:33:25.725                : :Chapter 14
    01:41:20.616                : :Chapter 15
    01:48:48.689                : :Chapter 16

     

  • Peso: 9.86 GiB

Sinopsis

Un alijo de heroína valorada en unos 100 millones de dólares es robado del mismísimo depósito de la policía. El caso le será asignado a los agentes Burnett y Lowery, una pareja muy peculiar por los métodos que utilizan. La única pista que tienen para comenzar es la de un testigo que les ayudará a identificar a los atracadores y a la que tendrán que proteger.

Doblaje Original AC3 2.0 – Redoblaje AC3 5.1 – Ingles DTS 5.1

Ficha técnica

Video trailer de la película

Enlaces de descarga

Rip de Bluray

Descargar Bad Boys (1995) PLACEBO 1080p [MultiDoblaje] Latino




Aportes de DPeliculasHDmega la pass es:dpeliculashdmega.org Aportes de CinemaniaHD la pass es:cinemaniahdd.com

Películas relacionadas

descargar Bad Boys (1995) PLACEBO 1080p [MultiDoblaje] Latino Full 1080p 1080p gratis, Bad Boys (1995) PLACEBO 1080p [MultiDoblaje] Latino Full 1080p mega 1 link, Bad Boys (1995) PLACEBO 1080p [MultiDoblaje] Latino Full 1080p pelicula completa, descargar Bad Boys (1995) PLACEBO 1080p [MultiDoblaje] Latino Full 1080p gratis en mega.

Bad Boys (1995) PLACEBO 1080p [MultiDoblaje] Latino pelicula full hd, Bad Boys (1995) PLACEBO 1080p [MultiDoblaje] Latino mega latino, Bad Boys (1995) PLACEBO 1080p [MultiDoblaje] Latino 4k latino, Bad Boys (1995) PLACEBO 1080p [MultiDoblaje] Latino pelicula completa, Bad Boys (1995) PLACEBO 1080p [MultiDoblaje] Latino descargar gratis, descargar Bad Boys (1995) PLACEBO 1080p [MultiDoblaje] Latino pelicula latino, Bad Boys (1995) PLACEBO 1080p [MultiDoblaje] Latino 1 link mega, Bad Boys (1995) PLACEBO 1080p [MultiDoblaje] Latino 1 link google drive, Bad Boys (1995) PLACEBO 1080p [MultiDoblaje] Latino hd 1080p latino.
Comentarios 9
  • Eduardo Zepeda Bonales - 18 enero, 2020

    Ya no están disponibles los enlaces, los podrían subir de nuevo, por favor?

    • CinemaniaHDD - 28 marzo, 2020

      Resubida

  • buf - 16 enero, 2020

    Porque este audio latino no es el mismo que dan por la TV?

    • CinemaniaHDD - 28 marzo, 2020

      porque existen 2 doblajes, uno solo para emisiones de tv y dvd y el otro para la version fisica.
      igual ya la resubi con ambos doblajes

  • RuddyYankee - 22 febrero, 2018

    Subirán la segunda también ?

    • Dracarys - 22 febrero, 2018

      si…

      • RuddyYankee - 22 febrero, 2018

        Muchas GRACIAS, la esperaré

  • DarkHaunter90 - 21 febrero, 2018

    Publicaran la 2?