×

¿Problemas para descargar con Mozilla, EDGE? Deshabilita la opción "Abrir vinculos en una pestaña nueva" tal como lo muestra ésta imagen.

Dora y la ciudad perdida (2019) PLACEBO 1080p latino

3.119 vistas

Información de Dora y la ciudad perdida (2019) PLACEBO 1080p latino

Datos de la película

  • Calidad: Full 1080p
  • Audio: Se especifica abajo de la Sinopsis
  • Subtitulos: Español Latino PGS - Ingles PGS
  • Resolución: 1920x1080
  • Formato: MKV
  • Codec: H.264
  • Encoder: cinemaniahdd
  • Mediainfo: Clic para Mostrar Datos Ver
  • Dora y la ciudad perdida (2019) PLACEBO 1080p latino.mkv
    Format                      : Matroska
    Format version              : Version 4
    File size                   : 7.56 GiB
    Duration                    : 1 h 42 min
    Overall bit rate mode       : Variable
    Overall bit rate            : 10.6 Mb/s
    Movie name                  : Dora y la ciudad perdida (2019) - CinemaniaHDD.Net
    Encoded date                : UTC 2019-11-08 23:44:47
    Writing application         : mkvmerge v38.0.0 ('The Silent Type') 64-bit
    Writing library             : libebml v1.3.9 + libmatroska v1.5.2

    Video
    ID                          : 1
    Format                      : AVC
    Format/Info                 : Advanced Video Codec
    Format profile              : High@L4.1
    Format settings             : CABAC / 4 Ref Frames
    Format settings, CABAC      : Yes
    Format settings, ReFrames   : 4 frames
    Codec ID                    : V_MPEG4/ISO/AVC
    Duration                    : 1 h 42 min
    Bit rate                    : 5 410 kb/s
    Width                       : 1 920 pixels
    Height                      : 1 080 pixels
    Display aspect ratio        : 16:9
    Frame rate mode             : Constant
    Frame rate                  : 23.976 (24000/1001) FPS
    Color space                 : YUV
    Chroma subsampling          : 4:2:0
    Bit depth                   : 8 bits
    Scan type                   : Progressive
    Bits/(Pixel*Frame)          : 0.109
    Stream size                 : 3.87 GiB (51%)
    Title                       : CinemaniaHDD
    Writing library             : x264 core 157 r2935 545de2f
    Encoding settings           : cabac=1 / ref=4 / deblock=1:0:0 / analyse=0x3:0x133 / me=tesa / subme=11 / psy=1 / psy_rd=1.00:0.00 / mixed_ref=1 / me_range=24 / chroma_me=1 / trellis=2 / 8x8dct=1 / cqm=0 / deadzone=21,11 / fast_pskip=0 / chroma_qp_offset=-2 / threads=34 / lookahead_threads=8 / sliced_threads=0 / nr=0 / decimate=1 / interlaced=0 / bluray_compat=0 / constrained_intra=0 / bframes=16 / b_pyramid=2 / b_adapt=2 / b_bias=0 / direct=3 / weightb=1 / open_gop=0 / weightp=2 / keyint=240 / keyint_min=24 / scenecut=40 / intra_refresh=0 / rc_lookahead=60 / rc=crf / mbtree=1 / crf=20.0 / qcomp=0.60 / qpmin=0 / qpmax=69 / qpstep=4 / vbv_maxrate=62500 / vbv_bufsize=78125 / crf_max=0.0 / nal_hrd=none / filler=0 / ip_ratio=1.40 / aq=1:1.00
    Default                     : Yes
    Forced                      : No
    Color range                 : Limited
    Color primaries             : BT.709
    Transfer characteristics    : BT.709
    Matrix coefficients         : BT.709

    Audio #1
    ID                          : 2
    Format                      : AC-3
    Format/Info                 : Audio Coding 3
    Commercial name             : Dolby Digital
    Codec ID                    : A_AC3
    Duration                    : 1 h 42 min
    Bit rate mode               : Constant
    Bit rate                    : 640 kb/s
    Channel(s)                  : 6 channels
    Channel layout              : L R C LFE Ls Rs
    Sampling rate               : 48.0 kHz
    Frame rate                  : 31.250 FPS (1536 SPF)
    Bit depth                   : 16 bits
    Compression mode            : Lossy
    Delay relative to video     : 23 ms
    Stream size                 : 469 MiB (6%)
    Title                       : Español latino [CinemaniaHDD]
    Language                    : Spanish
    Service kind                : Complete Main
    Default                     : Yes
    Forced                      : No

    Audio #2
    ID                          : 3
    Format                      : MLP FBA 16-ch
    Format/Info                 : Meridian Lossless Packing FBA with 16-channel presentation
    Commercial name             : Dolby TrueHD with Dolby Atmos
    Codec ID                    : A_TRUEHD
    Duration                    : 1 h 42 min
    Bit rate mode               : Variable
    Bit rate                    : 4 404 kb/s
    Maximum bit rate            : 7 182 kb/s
    Channel(s)                  : 8 channels
    Channel layout              : L R C LFE Ls Rs Lb Rb
    Sampling rate               : 48.0 kHz
    Frame rate                  : 1 200.000 FPS (40 SPF)
    Compression mode            : Lossless
    Stream size                 : 3.15 GiB (42%)
    Title                       : Inglés [CinemaniaHDD]
    Language                    : English
    Default                     : No
    Forced                      : No
    Number of dynamic objects   : 11
    Bed channel count           : 1 channel
    Bed channel configuration   : LFE

    Text #1
    ID                          : 4
    Format                      : UTF-8
    Codec ID                    : S_TEXT/UTF8
    Codec ID/Info               : UTF-8 Plain Text
    Duration                    : 1 h 40 min
    Bit rate                    : 0 b/s
    Count of elements           : 18
    Stream size                 : 471 Bytes (0%)
    Title                       : Forzados [CinemaniaHDD]
    Language                    : Spanish
    Default                     : Yes
    Forced                      : Yes

    Text #2
    ID                          : 5
    Format                      : UTF-8
    Codec ID                    : S_TEXT/UTF8
    Codec ID/Info               : UTF-8 Plain Text
    Duration                    : 1 h 41 min
    Bit rate                    : 54 b/s
    Count of elements           : 1361
    Stream size                 : 40.5 KiB (0%)
    Title                       : Español latino [CinemaniaHDD]
    Language                    : Spanish
    Default                     : No
    Forced                      : No

    Text #3
    ID                          : 6
    Format                      : PGS
    Muxing mode                 : zlib
    Codec ID                    : S_HDMV/PGS
    Codec ID/Info               : Picture based subtitle format used on BDs/HD-DVDs
    Duration                    : 1 h 41 min
    Bit rate                    : 38.6 kb/s
    Count of elements           : 2722
    Stream size                 : 28.1 MiB (0%)
    Title                       : Español latino [CinemaniaHDD]
    Language                    : Spanish
    Default                     : No
    Forced                      : No

    Text #4
    ID                          : 7
    Format                      : PGS
    Muxing mode                 : zlib
    Codec ID                    : S_HDMV/PGS
    Codec ID/Info               : Picture based subtitle format used on BDs/HD-DVDs
    Duration                    : 1 h 37 min
    Bit rate                    : 42.9 kb/s
    Count of elements           : 2800
    Stream size                 : 29.8 MiB (0%)
    Title                       : Inglés [CinemaniaHDD]
    Language                    : English
    Default                     : No
    Forced                      : No

    Menu
    00:00:00.000                : :Chapter 1
    00:04:52.542                : :Chapter 2
    00:09:49.089                : :Chapter 3
    00:15:35.726                : :Chapter 4
    00:20:26.892                : :Chapter 5
    00:25:47.838                : :Chapter 6
    00:35:15.864                : :Chapter 7
    00:42:53.738                : :Chapter 8
    00:47:13.789                : :Chapter 9
    00:52:57.966                : :Chapter 10
    00:55:41.588                : :Chapter 11
    01:01:02.659                : :Chapter 12
    01:06:11.384                : :Chapter 13
    01:10:23.136                : :Chapter 14
    01:13:52.261                : :Chapter 15
    01:18:26.327                : :Chapter 16
    01:22:39.621                : :Chapter 17
    01:32:57.322                : :Chapter 18
    01:38:30.279                : :Chapter 19

     

  • Peso: 7.56 GiB

Sinopsis

Descargar Dora y la ciudad perdida (2019) PLACEBO 1080p latino, Habiendo pasado gran parte de su vida explorando la jungla con sus padres, nada podría preparar a Dora (Isabela Moner) para su aventura más peligrosa: la secundaria. Siempre exploradora, Dora se encuentra rápidamente llevando a Botas (su mejor amigo, un mono), Diego (Jeffrey Wahlberg), un misterioso habitante de la jungla (Eugenio Derbez), y a un desorganizado grupo de adolescentes en una aventura en live-action para salvar a sus padres (Eva Longoria, Michael Peña) y resolver el misterio imposible detrás de la ciudad perdida del oro.

Español Latino AC3 5.1 BLURAY – Ingles TRUEHD 7.1 BLURAY

Ficha técnica

Video trailer de la película

Enlaces de descarga

Rip de Bluray

Descargar Dora y la ciudad perdida (2019) PLACEBO 1080p latino




Aportes de DPeliculasHDmega la pass es:dpeliculashdmega.org Aportes de CinemaniaHD la pass es:cinemaniahdd.com

Películas relacionadas

  • Un mundo extraño (2022) HD 1080p Latino

    Un mundo extraño (2022) HD 1080p Latino

    2022
    Un mundo extraño (2022) HD 1080p Latino

    1h 42m 2022

    Descargar Un mundo extraño (2022) HD 1080p Latino. Los Clades son una familia conocida en todo el mundo,...

    Director: Thai Bettistea

    Género: Animación

    Actores: Reed Buck

  • Un mundo extraño (2022) REMUX 1080p Latino

    Un mundo extraño (2022) REMUX 1080p Latino

    2022
    Un mundo extraño (2022) REMUX 1080p Latino

    1h 42m 2022

    Descargar Un mundo extraño (2022) REMUX 1080p. Un viaje a una tierra inexplorada y traicionera en la...

    Director: Thai Bettistea

    Género: Animación

    Actores: Reed Buck

  • Espiritu Libre (2023) NF WEB-DL 1080p Latino

    Espiritu Libre (2023) NF WEB-DL 1080p Latino

    2023
    Espiritu Libre (2023) NF WEB-DL 1080p Latino

    1h 49m 2023

    Descargar Espiritu Libre (2023) NF WEB-DL 1080p Latino. La película se basa en la increíble historia...

    Director: Sarah Spillane

    Género: Aventura

    Actores: Vivien Turner

descargar Dora y la ciudad perdida (2019) PLACEBO 1080p latino Full 1080p 1080p gratis, Dora y la ciudad perdida (2019) PLACEBO 1080p latino Full 1080p mega 1 link, Dora y la ciudad perdida (2019) PLACEBO 1080p latino Full 1080p pelicula completa, descargar Dora y la ciudad perdida (2019) PLACEBO 1080p latino Full 1080p gratis en mega.

Dora y la ciudad perdida (2019) PLACEBO 1080p latino pelicula full hd, Dora y la ciudad perdida (2019) PLACEBO 1080p latino mega latino, Dora y la ciudad perdida (2019) PLACEBO 1080p latino 4k latino, Dora y la ciudad perdida (2019) PLACEBO 1080p latino pelicula completa, Dora y la ciudad perdida (2019) PLACEBO 1080p latino descargar gratis, descargar Dora y la ciudad perdida (2019) PLACEBO 1080p latino pelicula latino, Dora y la ciudad perdida (2019) PLACEBO 1080p latino 1 link mega, Dora y la ciudad perdida (2019) PLACEBO 1080p latino 1 link google drive, Dora y la ciudad perdida (2019) PLACEBO 1080p latino hd 1080p latino.
Comentarios 0