×

¿Problemas para descargar con Mozilla, EDGE? Deshabilita la opción "Abrir vinculos en una pestaña nueva" tal como lo muestra ésta imagen.

Dora y la ciudad perdida (2019) 1080p Latino

2.916 vistas

Información de Dora y la ciudad perdida (2019) 1080p Latino

Datos de la película

  • Calidad: 1080p
  • Audio: Español Castellano AC3 5.1 BLURAY - Ingles AC3 5.1 BLURAY
  • Subtitulos: Español Latino SRT- FORZADOS SRT
  • Resolución: 1920x1080
  • Formato: MKV
  • Codec: H.264
  • Encoder: cinemaniahdd
  • Mediainfo: Clic para Mostrar Datos Ver
  • Dora y la ciudad perdida (2019) 1080p Latino.mkv
    Format                      : Matroska
    Format version              : Version 4
    File size                   : 3.28 GiB
    Duration                    : 1 h 42 min
    Overall bit rate            : 4 578 kb/s
    Movie name                  : Dora y la ciudad perdida (2019) - CineamaniaHDD.Net
    Encoded date                : UTC 2019-11-08 22:47:56
    Writing application         : mkvmerge v38.0.0 ('The Silent Type') 64-bit
    Writing library             : libebml v1.3.9 + libmatroska v1.5.2

    Video
    ID                          : 1
    Format                      : AVC
    Format/Info                 : Advanced Video Codec
    Format profile              : Main@L4
    Format settings             : CABAC / 4 Ref Frames
    Format settings, CABAC      : Yes
    Format settings, ReFrames   : 4 frames
    Codec ID                    : V_MPEG4/ISO/AVC
    Duration                    : 1 h 42 min
    Bit rate                    : 3 500 kb/s
    Width                       : 1 920 pixels
    Height                      : 1 080 pixels
    Display aspect ratio        : 16:9
    Frame rate mode             : Constant
    Frame rate                  : 23.976 (24000/1001) FPS
    Color space                 : YUV
    Chroma subsampling          : 4:2:0
    Bit depth                   : 8 bits
    Scan type                   : Progressive
    Bits/(Pixel*Frame)          : 0.070
    Stream size                 : 2.50 GiB (76%)
    Title                       : CinemaniaHDD
    Writing library             : x264 core 157 r2935 545de2f
    Encoding settings           : cabac=1 / ref=4 / deblock=1:0:0 / analyse=0x1:0x111 / me=hex / subme=8 / psy=1 / psy_rd=1.00:0.00 / mixed_ref=1 / me_range=16 / chroma_me=1 / trellis=2 / 8x8dct=0 / cqm=0 / deadzone=21,11 / fast_pskip=1 / chroma_qp_offset=-2 / threads=34 / lookahead_threads=5 / sliced_threads=0 / nr=0 / decimate=1 / interlaced=0 / bluray_compat=0 / constrained_intra=0 / bframes=3 / b_pyramid=2 / b_adapt=1 / b_bias=0 / direct=3 / weightb=1 / open_gop=0 / weightp=2 / keyint=240 / keyint_min=24 / scenecut=40 / intra_refresh=0 / rc_lookahead=50 / rc=abr / mbtree=1 / bitrate=3500 / ratetol=1.0 / qcomp=0.60 / qpmin=0 / qpmax=69 / qpstep=4 / vbv_maxrate=20000 / vbv_bufsize=25000 / nal_hrd=none / filler=0 / ip_ratio=1.40 / aq=1:1.00
    Default                     : Yes
    Forced                      : No
    Color range                 : Limited
    Color primaries             : BT.709
    Transfer characteristics    : BT.709
    Matrix coefficients         : BT.709

    Audio #1
    ID                          : 2
    Format                      : AC-3
    Format/Info                 : Audio Coding 3
    Commercial name             : Dolby Digital
    Codec ID                    : A_AC3
    Duration                    : 1 h 42 min
    Bit rate mode               : Constant
    Bit rate                    : 640 kb/s
    Channel(s)                  : 6 channels
    Channel layout              : L R C LFE Ls Rs
    Sampling rate               : 48.0 kHz
    Frame rate                  : 31.250 FPS (1536 SPF)
    Bit depth                   : 16 bits
    Compression mode            : Lossy
    Delay relative to video     : 23 ms
    Stream size                 : 469 MiB (14%)
    Title                       : Español latino [CinemaniaHDD]
    Language                    : Spanish
    Service kind                : Complete Main
    Default                     : Yes
    Forced                      : No

    Audio #2
    ID                          : 3
    Format                      : AC-3
    Format/Info                 : Audio Coding 3
    Commercial name             : Dolby Digital
    Codec ID                    : A_AC3
    Duration                    : 1 h 42 min
    Bit rate mode               : Constant
    Bit rate                    : 448 kb/s
    Channel(s)                  : 6 channels
    Channel layout              : L R C LFE Ls Rs
    Sampling rate               : 48.0 kHz
    Frame rate                  : 31.250 FPS (1536 SPF)
    Bit depth                   : 16 bits
    Compression mode            : Lossy
    Delay relative to video     : -5 ms
    Stream size                 : 328 MiB (10%)
    Title                       : Inglés [CinemaniaHDD]
    Language                    : English
    Service kind                : Complete Main
    Default                     : No
    Forced                      : No

    Text #1
    ID                          : 4
    Format                      : UTF-8
    Codec ID                    : S_TEXT/UTF8
    Codec ID/Info               : UTF-8 Plain Text
    Duration                    : 1 h 40 min
    Bit rate                    : 0 b/s
    Count of elements           : 18
    Stream size                 : 471 Bytes (0%)
    Title                       : Forzados [CinemaniaHDD]
    Language                    : Spanish
    Default                     : Yes
    Forced                      : Yes

    Text #2
    ID                          : 5
    Format                      : UTF-8
    Codec ID                    : S_TEXT/UTF8
    Codec ID/Info               : UTF-8 Plain Text
    Duration                    : 1 h 41 min
    Bit rate                    : 54 b/s
    Count of elements           : 1361
    Stream size                 : 40.5 KiB (0%)
    Title                       : Español latino [CinemaniaHDD]
    Language                    : Spanish
    Default                     : No
    Forced                      : No

    Menu
    00:00:00.000                : :Chapter 1
    00:04:52.542                : :Chapter 2
    00:09:49.089                : :Chapter 3
    00:15:35.726                : :Chapter 4
    00:20:26.892                : :Chapter 5
    00:25:47.838                : :Chapter 6
    00:35:15.864                : :Chapter 7
    00:42:53.738                : :Chapter 8
    00:47:13.789                : :Chapter 9
    00:52:57.966                : :Chapter 10
    00:55:41.588                : :Chapter 11
    01:01:02.659                : :Chapter 12
    01:06:11.384                : :Chapter 13
    01:10:23.136                : :Chapter 14
    01:13:52.261                : :Chapter 15
    01:18:26.327                : :Chapter 16
    01:22:39.621                : :Chapter 17
    01:32:57.322                : :Chapter 18
    01:38:30.279                : :Chapter 19

     

  • Peso: 3.28 GiB

Sinopsis

Tras haber pasado la mayor parte de su vida explorando la jungla junto a sus padres, nada podría haber preparado a Dora para la aventura más peligrosa a la que jamás se ha enfrentado: ¡el instituto!. Exploradora hasta el final, Dora no tarda en ponerse al frente de un equipo formado por Botas (su mejor amigo, un mono), Diego, un misterioso habitante de la jungla y un desorganizado grupo de adolescentes en una aventura en la que deberán salvar a sus padres y resolver el misterio oculto tras una ciudad perdida de oro.

Ficha técnica

Video trailer de la película

Enlaces de descarga

Rip de Bluray

Descargar Dora y la ciudad perdida (2019) 1080p Latino




Aportes de DPeliculasHDmega la pass es:dpeliculashdmega.org Aportes de CinemaniaHD la pass es:cinemaniahdd.com
Guardado en : Aventura , Comedia , Familia , HD 1080p

Películas relacionadas

descargar Dora y la ciudad perdida (2019) 1080p Latino 1080p 1080p gratis, Dora y la ciudad perdida (2019) 1080p Latino 1080p mega 1 link, Dora y la ciudad perdida (2019) 1080p Latino 1080p pelicula completa, descargar Dora y la ciudad perdida (2019) 1080p Latino 1080p gratis en mega.

Dora y la ciudad perdida (2019) 1080p Latino pelicula full hd, Dora y la ciudad perdida (2019) 1080p Latino mega latino, Dora y la ciudad perdida (2019) 1080p Latino 4k latino, Dora y la ciudad perdida (2019) 1080p Latino pelicula completa, Dora y la ciudad perdida (2019) 1080p Latino descargar gratis, descargar Dora y la ciudad perdida (2019) 1080p Latino pelicula latino, Dora y la ciudad perdida (2019) 1080p Latino 1 link mega, Dora y la ciudad perdida (2019) 1080p Latino 1 link google drive, Dora y la ciudad perdida (2019) 1080p Latino hd 1080p latino.
Comentarios 1
  • Santiago - 05 noviembre, 2019

    En los enlaces públicos no figura ningún link de descarga. Gracias por la película!