Doom Patrol (2020) Temporada 2 HMAX WEB-DL 1080p Latino

81 vistas
1 estrella2 estrellas3 estrellas4 estrellas5 estrellas (3 votos, promedio: 5,00 de 5)
Cargando...

Información de Doom Patrol (2020) Temporada 2 HMAX WEB-DL 1080p Latino

Datos de la película

  • Calidad: WEBDL
  • Audio: Español Latino AC3 2.0 WEB-DL - Ingles AC3 5.1 WEB-DL
  • Subtitulos: Español Latino SRT- FORZADOS SRT
  • Resolución: 1920x1080
  • Formato: MKV
  • Codec: H.264
  • Encoder: cinemaniahdd
  • Mediainfo: Clic para Mostrar Datos Ver
  • Doom Patrol T02E01 HMAX WEB-DL 1080p Latino [CNMNHDD].mkv
    Format                      : Matroska
    Format version              : Version 4
    File size                   : 3.44 GiB
    Duration                    : 53 min 51 s
    Overall bit rate mode       : Variable
    Overall bit rate            : 9 144 kb/s
    Movie name                  : Doom Patrol T02E01 - CinemaniaHDD.Net
    Encoded date                : UTC 2020-09-11 01:13:21
    Writing application         : mkvmerge v46.0.0 ('No Deeper Escape') 64-bit
    Writing library             : libebml v1.3.10 + libmatroska v1.5.2

    Video
    ID                          : 1
    Format                      : AVC
    Format/Info                 : Advanced Video Codec
    Format profile              : High@L4
    Format settings             : CABAC / 4 Ref Frames
    Format settings, CABAC      : Yes
    Format settings, Reference  : 4 frames
    Codec ID                    : V_MPEG4/ISO/AVC
    Duration                    : 53 min 51 s
    Bit rate mode               : Variable
    Bit rate                    : 8 246 kb/s
    Maximum bit rate            : 12.4 Mb/s
    Width                       : 1 920 pixels
    Height                      : 1 080 pixels
    Display aspect ratio        : 16:9
    Frame rate mode             : Constant
    Frame rate                  : 23.976 (24000/1001) FPS
    Color space                 : YUV
    Chroma subsampling          : 4:2:0
    Bit depth                   : 8 bits
    Scan type                   : Progressive
    Bits/(Pixel*Frame)          : 0.166
    Stream size                 : 3.10 GiB (90%)
    Title                       : CinemaniaHDD
    Default                     : Yes
    Forced                      : No

    Audio #1
    ID                          : 2
    Format                      : AC-3
    Format/Info                 : Audio Coding 3
    Commercial name             : Dolby Digital
    Codec ID                    : A_AC3
    Duration                    : 53 min 51 s
    Bit rate mode               : Constant
    Bit rate                    : 256 kb/s
    Channel(s)                  : 2 channels
    Channel layout              : L R
    Sampling rate               : 48.0 kHz
    Frame rate                  : 31.250 FPS (1536 SPF)
    Compression mode            : Lossy
    Stream size                 : 98.6 MiB (3%)
    Title                       : Español latino [CinemaniaHDD]
    Language                    : Spanish
    Service kind                : Complete Main
    Default                     : Yes
    Forced                      : No

    Audio #2
    ID                          : 3
    Format                      : E-AC-3
    Format/Info                 : Enhanced AC-3
    Commercial name             : Dolby Digital Plus
    Codec ID                    : A_EAC3
    Duration                    : 53 min 51 s
    Bit rate mode               : Constant
    Bit rate                    : 640 kb/s
    Channel(s)                  : 6 channels
    Channel layout              : L R C LFE Ls Rs
    Sampling rate               : 48.0 kHz
    Frame rate                  : 31.250 FPS (1536 SPF)
    Compression mode            : Lossy
    Delay relative to video     : 25 ms
    Stream size                 : 247 MiB (7%)
    Title                       : Inglés [CinemaniaHDD]
    Language                    : English
    Service kind                : Complete Main
    Default                     : No
    Forced                      : No

    Text #1
    ID                          : 4
    Format                      : UTF-8
    Codec ID                    : S_TEXT/UTF8
    Codec ID/Info               : UTF-8 Plain Text
    Duration                    : 48 min 45 s
    Bit rate                    : 0 b/s
    Count of elements           : 7
    Stream size                 : 155 Bytes (0%)
    Title                       : Forzados [CinemaniaHDD]
    Language                    : Spanish
    Default                     : Yes
    Forced                      : Yes

    Text #2
    ID                          : 5
    Format                      : UTF-8
    Codec ID                    : S_TEXT/UTF8
    Codec ID/Info               : UTF-8 Plain Text
    Duration                    : 51 min 27 s
    Bit rate                    : 50 b/s
    Count of elements           : 644
    Stream size                 : 18.9 KiB (0%)
    Title                       : Español latino [CinemaniaHDD]
    Language                    : Spanish
    Default                     : No
    Forced                      : No

    Text #3
    ID                          : 6
    Format                      : UTF-8
    Codec ID                    : S_TEXT/UTF8
    Codec ID/Info               : UTF-8 Plain Text
    Duration                    : 51 min 31 s
    Bit rate                    : 62 b/s
    Count of elements           : 888
    Stream size                 : 23.7 KiB (0%)
    Title                       : Inglés [CinemaniaHDD]
    Language                    : English
    Default                     : No
    Forced                      : No

     

  • Peso: 3.44 GiB --- 8 CAPITULO AGREGADO

Sinopsis

Luego de lo ocurrido en Danny La Calle, nuestra querida banda de inadaptados se ve forzada a lidiar con sus nuevos sentimientos por el Jefe. Pero a medida que intentan superar su pasado traumático, la Doom Patrol se une para cuidar del miembro más reciente de la familia, cuyos poderes resultan una misteriosa, aunque bastante real, amenaza para el mundo.

8 CAPITULO AGREGADO

Ficha técnica

Video trailer de la película

Enlaces de descarga

Rip de Bluray

Descargar Doom Patrol (2020) Temporada 2 HMAX WEB-DL 1080p Latino




Aportes de DPeliculasHDmega la pass es:dpeliculashdmega.org Aportes de CinemaniaHD la pass es:cinemaniahdd.com

Películas relacionadas

Comentarios 4
  • ramoncito - 24 octubre, 2020

    Hola, sigue en ingles solamente el capitulo 6???

    • CinemaniaHDD - 24 octubre, 2020

      si, el streaming aun no lo agrega

  • arielito - 20 octubre, 2020

    El capitulo 6 esta con audio solo en ingles, podrias subirlo en español latino? Gracias.

    • CinemaniaHDD - 23 octubre, 2020

      ese capitulo no trajo doblaje