×

¿Problemas para descargar con Mozilla, EDGE? Deshabilita la opción "Abrir vinculos en una pestaña nueva" tal como lo muestra ésta imagen.

Don’t Say a Word (2001) REMUX 1080p Latino – CMHDD

265 vistas

Información de Don’t Say a Word (2001) REMUX 1080p Latino – CMHDD

Datos de la película

  • Calidad: Full 1080p
  • Audio: Español Latino AC3 5.1 BLURAY - Ingles DTS 5.1 BLURAY
  • Subtitulos: Español Latino PGS
  • Resolución: 1920x1080p
  • Formato: MKV
  • Codec: H.264
  • Encoder: Dracarys
  • Mediainfo: Clic para Mostrar Datos Ver
  • Format                      : Matroska
    Format version              : Version 4
    File size                   : 27.5 GiB
    Duration                    : 1 h 53 min
    Overall bit rate mode       : Variable
    Overall bit rate            : 34.7 Mb/s
    Movie name                  : Don't Say a Word (2001) REMUX 1080p Latino - CMHDD
    Encoded date                : UTC 2022-02-02 15:48:15
    Writing application         : mkvmerge v17.0.0 ('Be Ur Friend') 64-bit
    Writing library             : libebml v1.3.5 + libmatroska v1.4.8

    Video
    ID                          : 1
    Format                      : AVC
    Format/Info                 : Advanced Video Codec
    Format profile              : High@L4.1
    Format settings             : CABAC / 4 Ref Frames
    Format settings, CABAC      : Yes
    Format settings, Reference  : 4 frames
    Codec ID                    : V_MPEG4/ISO/AVC
    Duration                    : 1 h 53 min
    Bit rate mode               : Variable
    Bit rate                    : 30.2 Mb/s
    Maximum bit rate            : 31.5 Mb/s
    Width                       : 1 920 pixels
    Height                      : 1 080 pixels
    Display aspect ratio        : 16:9
    Frame rate mode             : Constant
    Frame rate                  : 23.976 (24000/1001) FPS
    Color space                 : YUV
    Chroma subsampling          : 4:2:0
    Bit depth                   : 8 bits
    Scan type                   : Progressive
    Bits/(Pixel*Frame)          : 0.608
    Stream size                 : 24.0 GiB (87%)
    Default                     : Yes
    Forced                      : No

    Audio #1
    ID                          : 2
    Format                      : DTS XLL
    Format/Info                 : Digital Theater Systems
    Commercial name             : DTS-HD Master Audio
    Codec ID                    : A_DTS
    Duration                    : 1 h 53 min
    Bit rate mode               : Variable
    Bit rate                    : 4 002 kb/s
    Channel(s)                  : 6 channels
    Channel layout              : C L R Ls Rs LFE
    Sampling rate               : 48.0 kHz
    Frame rate                  : 93.750 FPS (512 SPF)
    Bit depth                   : 24 bits
    Compression mode            : Lossless
    Stream size                 : 3.18 GiB (12%)
    Language                    : English
    Default                     : No
    Forced                      : No

    Audio #2
    ID                          : 3
    Format                      : AC-3
    Format/Info                 : Audio Coding 3
    Commercial name             : Dolby Digital
    Codec ID                    : A_AC3
    Duration                    : 1 h 53 min
    Bit rate mode               : Constant
    Bit rate                    : 448 kb/s
    Channel(s)                  : 6 channels
    Channel layout              : L R C LFE Ls Rs
    Sampling rate               : 48.0 kHz
    Frame rate                  : 31.250 FPS (1536 SPF)
    Compression mode            : Lossy
    Stream size                 : 364 MiB (1%)
    Language                    : Spanish
    Service kind                : Complete Main
    Default                     : Yes
    Forced                      : No

    Text
    ID                          : 4
    Format                      : PGS
    Muxing mode                 : zlib
    Codec ID                    : S_HDMV/PGS
    Codec ID/Info               : Picture based subtitle format used on BDs/HD-DVDs
    Duration                    : 1 h 52 min
    Bit rate                    : 27.7 kb/s
    Count of elements           : 2142
    Stream size                 : 22.2 MiB (0%)
    Language                    : Spanish
    Default                     : No
    Forced                      : No

    Menu
    00:00:00.000                : en:Chapter 1
    00:08:10.490                : en:Chapter 2
    00:11:16.676                : en:Chapter 3
    00:18:50.546                : en:Chapter 4
    00:20:02.951                : en:Chapter 5
    00:23:31.701                : en:Chapter 6
    00:26:54.779                : en:Chapter 7
    00:29:50.663                : en:Chapter 8
    00:35:31.337                : en:Chapter 9
    00:37:07.558                : en:Chapter 10
    00:42:11.695                : en:Chapter 11
    00:44:05.643                : en:Chapter 12
    00:47:15.415                : en:Chapter 13
    00:53:40.217                : en:Chapter 14
    00:56:37.977                : en:Chapter 15
    00:59:07.502                : en:Chapter 16
    01:03:58.125                : en:Chapter 17
    01:07:30.087                : en:Chapter 18
    01:10:24.386                : en:Chapter 19
    01:12:00.065                : en:Chapter 20
    01:18:19.778                : en:Chapter 21
    01:19:18.920                : en:Chapter 22
    01:24:32.776                : en:Chapter 23
    01:27:01.633                : en:Chapter 24
    01:30:05.566                : en:Chapter 25
    01:34:03.387                : en:Chapter 26
    01:37:04.485                : en:Chapter 27
    01:39:14.365                : en:Chapter 28
    01:40:37.364                : en:Chapter 29
    01:43:49.765                : en:Chapter 30
    01:47:04.960                : en:Chapter 31
    01:49:33.984                : en:Chapter 32

  • Peso: 27.5 GiB

Sinopsis

Tres ejes narrativos independientes uno del otro, que con el correr de los minutos empiezan a conectarse, forman la base a través de la cual se desarrolla la trama de la película. El principal de ellos tiene como centro de acción a Nathan Conrad (Michael Douglas), un brillante psiquiatra de New York que, tras atender a una joven y misteriosa paciente, ve como su vida cambia abruptamente una mañana, cuando su pequeña hija es secuestrada sin motivo aparente. El segundo eje muestra al líder (Sean Bean) de una banda de ladrones de joyas en busca de venganza a cualquier costo luego de haber sido traicionado por unos de sus socios. Y el tercero cierra el triángulo con la investigación que la policía interpretada por Jennifer Esposito inicia a raíz de dos violentos asesinatos.

Ficha técnica

Video trailer de la película

Enlaces de descarga

Rip de Bluray

Descargar Don’t Say a Word (2001) REMUX 1080p Latino – CMHDD


Aportes de DPeliculasHDmega la pass es:dpeliculashdmega.org Aportes de CinemaniaHD la pass es:cinemaniahdd.com
Guardado en : Suspenso

Películas relacionadas

  • Juego de espías (2001) 1080p Latino

    Juego de espías (2001) 1080p Latino

    2001
    Juego de espías (2001) 1080p Latino

    2h 6m 2001

    Descargar Juego de espías (2001) 1080p Latino. Corre el año 1991, y al veterano agente de la CIA Nathan...

    Director: Tony Scott

    Género: Acción

    Actores: Zsolt Zágoni

  • Juego de espías (2001) Full HD 1080p Latino

    Juego de espías (2001) Full HD 1080p Latino

    2001
    Juego de espías (2001) Full HD 1080p Latino

    2h 6m 2001

    Descargar Juego de espías (2001) Full HD 1080p Latino. Corre el año 1991, y al veterano agente de la...

    Director: Tony Scott

    Género: Acción

    Actores: Zsolt Zágoni

  • Juego de espías (2001) REMUX 1080p Latino

    Juego de espías (2001) REMUX 1080p Latino

    2001
    Juego de espías (2001) REMUX 1080p Latino

    1h 55m 2001

    Descargar Juego de espías (2001) REMUX 1080p Latino. El día de su jubilación, el veterano agente de...

    Director: Tony Scott

    Género: Acción

    Actores: Zsolt Zágoni

  • Transfusion (2023) WEB-DL 4K UHD HDR Latino

    Transfusion (2023) WEB-DL 4K UHD HDR Latino

    2023
    Transfusion (2023) WEB-DL 4K UHD HDR Latino

    1h 45m 2023

    Descargar Transfusion (2023) WEB-DL 4K UHD HDR Latino. Un antiguo agente de las Fuerzas Especiales se...

    Director: Matt Nable

    Género: 4K HDR

    Actores: Trystan Go

  • Transfusion (2023) WEB-DL 1080p Latino

    Transfusion (2023) WEB-DL 1080p Latino

    2023
    Transfusion (2023) WEB-DL 1080p Latino

    1h 45m 2023

    Descargar Transfusion (2023) WEB-DL 1080p Latino. Un antiguo agente de las Fuerzas Especiales se ve empujado...

    Director: Matt Nable

    Género: Crimen

    Actores: Trystan Go

descargar Don’t Say a Word (2001) REMUX 1080p Latino – CMHDD Full 1080p 1080p gratis, Don’t Say a Word (2001) REMUX 1080p Latino – CMHDD Full 1080p mega 1 link, Don’t Say a Word (2001) REMUX 1080p Latino – CMHDD Full 1080p pelicula completa, descargar Don’t Say a Word (2001) REMUX 1080p Latino – CMHDD Full 1080p gratis en mega.

Don’t Say a Word (2001) REMUX 1080p Latino – CMHDD pelicula full hd, Don’t Say a Word (2001) REMUX 1080p Latino – CMHDD mega latino, Don’t Say a Word (2001) REMUX 1080p Latino – CMHDD 4k latino, Don’t Say a Word (2001) REMUX 1080p Latino – CMHDD pelicula completa, Don’t Say a Word (2001) REMUX 1080p Latino – CMHDD descargar gratis, descargar Don’t Say a Word (2001) REMUX 1080p Latino – CMHDD pelicula latino, Don’t Say a Word (2001) REMUX 1080p Latino – CMHDD 1 link mega, Don’t Say a Word (2001) REMUX 1080p Latino – CMHDD 1 link google drive, Don’t Say a Word (2001) REMUX 1080p Latino – CMHDD hd 1080p latino.
Comentarios 0