×

¿Problemas para descargar con Mozilla, EDGE? Deshabilita la opción "Abrir vinculos en una pestaña nueva" tal como lo muestra ésta imagen.

Dont Look Up (2021) WEB-DL [NF] 1080p Latino – CMHDD

272 vistas

Información de Dont Look Up (2021) WEB-DL [NF] 1080p Latino – CMHDD

Datos de la película

  • Calidad: Full 1080p
  • Audio: Se especifica abajo de la Sinopsis
  • Subtitulos: Español Latino SRT- FORZADOS SRT
  • Resolución: 1920x1080p
  • Formato: MKV
  • Codec: H.264
  • Encoder: Dracarys
  • Mediainfo: Clic para Mostrar Datos Ver
  • Format                      : Matroska
    Format version              : Version 4
    File size                   : 8.33 GiB
    Duration                    : 2 h 23 min
    Overall bit rate mode       : Variable
    Overall bit rate            : 8 325 kb/s
    Movie name                  : Dont Look Up (2021) WEB-DL [NF] 1080p Latino - CMHDD
    Encoded date                : UTC 2022-01-04 18:23:30
    Writing application         : mkvmerge v17.0.0 ('Be Ur Friend') 64-bit
    Writing library             : libebml v1.3.5 + libmatroska v1.4.8

    Video
    ID                          : 1
    Format                      : AVC
    Format/Info                 : Advanced Video Codec
    Format profile              : High@L4
    Format settings             : CABAC / 4 Ref Frames
    Format settings, CABAC      : Yes
    Format settings, Reference  : 4 frames
    Codec ID                    : V_MPEG4/ISO/AVC
    Duration                    : 2 h 23 min
    Bit rate mode               : Variable
    Bit rate                    : 6 915 kb/s
    Maximum bit rate            : 20.0 Mb/s
    Width                       : 1 920 pixels
    Height                      : 1 080 pixels
    Display aspect ratio        : 16:9
    Frame rate mode             : Constant
    Frame rate                  : 24.000 FPS
    Color space                 : YUV
    Chroma subsampling          : 4:2:0
    Bit depth                   : 8 bits
    Scan type                   : Progressive
    Bits/(Pixel*Frame)          : 0.139
    Stream size                 : 6.92 GiB (83%)
    Writing library             : x264 core 148 r2727 7d026e8
    Encoding settings           : cabac=1 / ref=4 / deblock=1:0:0 / analyse=0x3:0x111 / me=umh / subme=10 / psy=1 / psy_rd=1.00:0.00 / mixed_ref=1 / me_range=120 / chroma_me=1 / trellis=2 / 8x8dct=1 / cqm=0 / deadzone=21,11 / fast_pskip=1 / chroma_qp_offset=-2 / threads=6 / lookahead_threads=1 / sliced_threads=0 / nr=0 / decimate=1 / interlaced=0 / bluray_compat=0 / stitchable=1 / constrained_intra=0 / bframes=16 / b_pyramid=2 / b_adapt=2 / b_bias=0 / direct=3 / weightb=1 / open_gop=0 / weightp=2 / keyint=240 / keyint_min=121 / scenecut=0 / intra_refresh=0 / rc_lookahead=240 / rc=crf / mbtree=1 / crf=16.0 / qcomp=0.50 / qpmin=6 / qpmax=51 / qpstep=4 / vbv_maxrate=20000 / vbv_bufsize=25000 / crf_max=0.0 / nal_hrd=vbr / filler=0 / ip_ratio=1.40 / aq=1:0.80
    Default                     : Yes
    Forced                      : No

    Audio #1
    ID                          : 2
    Format                      : E-AC-3 JOC
    Format/Info                 : Enhanced AC-3 with Joint Object Coding
    Commercial name             : Dolby Digital Plus with Dolby Atmos
    Codec ID                    : A_EAC3
    Duration                    : 2 h 23 min
    Bit rate mode               : Constant
    Bit rate                    : 768 kb/s
    Channel(s)                  : 6 channels
    Channel layout              : L R C LFE Ls Rs
    Sampling rate               : 48.0 kHz
    Frame rate                  : 31.250 FPS (1536 SPF)
    Compression mode            : Lossy
    Stream size                 : 787 MiB (9%)
    Language                    : English
    Service kind                : Complete Main
    Default                     : No
    Forced                      : No
    Complexity index            : 16
    Number of dynamic objects   : 15
    Bed channel count           : 1 channel
    Bed channel configuration   : LFE

    Audio #2
    ID                          : 3
    Format                      : E-AC-3
    Format/Info                 : Enhanced AC-3
    Commercial name             : Dolby Digital Plus
    Codec ID                    : A_EAC3
    Duration                    : 2 h 23 min
    Bit rate mode               : Constant
    Bit rate                    : 640 kb/s
    Channel(s)                  : 6 channels
    Channel layout              : L R C LFE Ls Rs
    Sampling rate               : 48.0 kHz
    Frame rate                  : 31.250 FPS (1536 SPF)
    Compression mode            : Lossy
    Stream size                 : 655 MiB (8%)
    Language                    : Spanish
    Service kind                : Complete Main
    Default                     : Yes
    Forced                      : Yes

    Text #1
    ID                          : 4
    Format                      : UTF-8
    Codec ID                    : S_TEXT/UTF8
    Codec ID/Info               : UTF-8 Plain Text
    Duration                    : 2 h 17 min
    Bit rate                    : 71 b/s
    Count of elements           : 1992
    Stream size                 : 72.1 KiB (0%)
    Language                    : Spanish
    Default                     : No
    Forced                      : No

    Text #2
    ID                          : 5
    Format                      : UTF-8
    Codec ID                    : S_TEXT/UTF8
    Codec ID/Info               : UTF-8 Plain Text
    Duration                    : 2 h 17 min
    Bit rate                    : 3 b/s
    Count of elements           : 101
    Stream size                 : 3.84 KiB (0%)
    Title                       : Forzados
    Language                    : Spanish
    Default                     : Yes
    Forced                      : Yes

  • Peso: 8.33 GiB

Sinopsis

Kate Dibiasky, una estudiante de posgrado de Astronomía, y su profesor, el doctor Randall Mindy acaban de descubrir algo tan asombroso como peligroso. Un cometa en órbita se encuentra en el sistema solar y va directo a colisionar en la Tierra. A pesar de todos sus intentos por advertir al gobierno y la población, parece que la humanidad está dispuesta a tomárselo a broma. Con la ayuda del doctor Oglethorpe, Kate y Randall emprenderán una gira mediática que les llevará desde la Casa Blanca hasta el programa matinal más loco de la televisión para tratar de concienciar al mundo que está a punto de morir.

 

Latino: E-AC3 5.1  –  Inglés: E-AC3 5.1

Ficha técnica

Video trailer de la película

Enlaces de descarga

Rip de Bluray

Descargar Dont Look Up (2021) WEB-DL [NF] 1080p Latino – CMHDD




Aportes de DPeliculasHDmega la pass es:dpeliculashdmega.org Aportes de CinemaniaHD la pass es:cinemaniahdd.com
Guardado en : Ciencia ficción , Comedia , Drama

Películas relacionadas

descargar Dont Look Up (2021) WEB-DL [NF] 1080p Latino – CMHDD Full 1080p 1080p gratis, Dont Look Up (2021) WEB-DL [NF] 1080p Latino – CMHDD Full 1080p mega 1 link, Dont Look Up (2021) WEB-DL [NF] 1080p Latino – CMHDD Full 1080p pelicula completa, descargar Dont Look Up (2021) WEB-DL [NF] 1080p Latino – CMHDD Full 1080p gratis en mega.

Dont Look Up (2021) WEB-DL [NF] 1080p Latino – CMHDD pelicula full hd, Dont Look Up (2021) WEB-DL [NF] 1080p Latino – CMHDD mega latino, Dont Look Up (2021) WEB-DL [NF] 1080p Latino – CMHDD 4k latino, Dont Look Up (2021) WEB-DL [NF] 1080p Latino – CMHDD pelicula completa, Dont Look Up (2021) WEB-DL [NF] 1080p Latino – CMHDD descargar gratis, descargar Dont Look Up (2021) WEB-DL [NF] 1080p Latino – CMHDD pelicula latino, Dont Look Up (2021) WEB-DL [NF] 1080p Latino – CMHDD 1 link mega, Dont Look Up (2021) WEB-DL [NF] 1080p Latino – CMHDD 1 link google drive, Dont Look Up (2021) WEB-DL [NF] 1080p Latino – CMHDD hd 1080p latino.
Comentarios 0