×

¿Problemas para descargar con Mozilla, EDGE? Deshabilita la opción "Abrir vinculos en una pestaña nueva" tal como lo muestra ésta imagen.

Don’t Let Go (2019) WEB-DL 1080p Latino

903 vistas

Información de Don’t Let Go (2019) WEB-DL 1080p Latino

Datos de la película

  • Calidad: WEBDL
  • Audio: Español Latino AC3 2.0 iTunes - Ingles AC3 5.1 iTunes
  • Subtitulos: Español Latino SRT- FORZADOS SRT
  • Resolución: 1916x798
  • Formato: MKV
  • Codec: H.264
  • Encoder: cinemaniahdd
  • Mediainfo: Clic para Mostrar Datos Ver
  • Don't Let Go (2019) WEB-DL 1080p Latino (FIX).mkv
    Format                      : Matroska
    Format version              : Version 4
    File size                   : 3.79 GiB
    Duration                    : 1 h 43 min
    Overall bit rate            : 5 248 kb/s
    Movie name                  : Don't Let Go (2019) - CinemaniaHDD.Net
    Encoded date                : UTC 2019-11-12 14:36:42
    Writing application         : mkvmerge v38.0.0 ('The Silent Type') 64-bit
    Writing library             : libebml v1.3.9 + libmatroska v1.5.2

    Video
    ID                          : 1
    Format                      : AVC
    Format/Info                 : Advanced Video Codec
    Format profile              : High@L4
    Format settings             : CABAC / 5 Ref Frames
    Format settings, CABAC      : Yes
    Format settings, ReFrames   : 5 frames
    Codec ID                    : V_MPEG4/ISO/AVC
    Duration                    : 1 h 43 min
    Bit rate                    : 4 606 kb/s
    Width                       : 1 916 pixels
    Height                      : 798 pixels
    Display aspect ratio        : 2.40:1
    Frame rate mode             : Constant
    Frame rate                  : 23.976 FPS
    Color space                 : YUV
    Chroma subsampling          : 4:2:0
    Bit depth                   : 8 bits
    Scan type                   : Progressive
    Bits/(Pixel*Frame)          : 0.126
    Stream size                 : 3.33 GiB (88%)
    Title                       : CinemaniaHDD
    Language                    : English
    Default                     : Yes
    Forced                      : No
    Color range                 : Limited
    Color primaries             : BT.709
    Transfer characteristics    : BT.709
    Matrix coefficients         : BT.709

    Audio #1
    ID                          : 2
    Format                      : AC-3
    Format/Info                 : Audio Coding 3
    Commercial name             : Dolby Digital
    Codec ID                    : A_AC3
    Duration                    : 1 h 43 min
    Bit rate mode               : Constant
    Bit rate                    : 256 kb/s
    Channel(s)                  : 2 channels
    Channel layout              : L R
    Sampling rate               : 48.0 kHz
    Frame rate                  : 31.250 FPS (1536 SPF)
    Bit depth                   : 16 bits
    Compression mode            : Lossy
    Stream size                 : 189 MiB (5%)
    Title                       : Español latino [CinemaniaHDD]
    Language                    : Spanish
    Service kind                : Complete Main
    Default                     : Yes
    Forced                      : No

    Audio #2
    ID                          : 3
    Format                      : AC-3
    Format/Info                 : Audio Coding 3
    Commercial name             : Dolby Digital
    Codec ID                    : A_AC3
    Duration                    : 1 h 43 min
    Bit rate mode               : Constant
    Bit rate                    : 384 kb/s
    Channel(s)                  : 6 channels
    Channel layout              : L R C LFE Ls Rs
    Sampling rate               : 48.0 kHz
    Frame rate                  : 31.250 FPS (1536 SPF)
    Bit depth                   : 16 bits
    Compression mode            : Lossy
    Stream size                 : 284 MiB (7%)
    Title                       : Inglés [CinemaniaHDD]
    Language                    : English
    Service kind                : Complete Main
    Default                     : No
    Forced                      : No

    Text #1
    ID                          : 4
    Format                      : UTF-8
    Codec ID                    : S_TEXT/UTF8
    Codec ID/Info               : UTF-8 Plain Text
    Duration                    : 1 h 3 min
    Bit rate                    : 1 b/s
    Count of elements           : 25
    Stream size                 : 689 Bytes (0%)
    Title                       : Forzados [CinemaniaHDD]
    Language                    : Spanish
    Default                     : Yes
    Forced                      : Yes

    Text #2
    ID                          : 5
    Format                      : UTF-8
    Codec ID                    : S_TEXT/UTF8
    Codec ID/Info               : UTF-8 Plain Text
    Duration                    : 1 h 35 min
    Bit rate                    : 53 b/s
    Count of elements           : 1186
    Stream size                 : 37.6 KiB (0%)
    Title                       : Español latino [CinemaniaHDD]
    Language                    : Spanish
    Default                     : No
    Forced                      : No

    Menu
    00:00:00.000                : en:1
    00:05:52.602                : en:2
    00:10:39.680                : en:3
    00:14:30.410                : en:4
    00:21:06.931                : en:5
    00:24:04.441                : en:6
    00:34:02.539                : en:7
    00:39:18.353                : en:8
    00:45:07.117                : en:9
    00:50:18.678                : en:10
    00:57:31.527                : en:11
    01:03:51.490                : en:12
    01:07:28.330                : en:13
    01:13:08.962                : en:14
    01:16:41.465                : en:15
    01:20:49.462                : en:16
    01:24:15.668                : en:17
    01:30:37.424                : en:18
    01:34:39.957                : en:19
    01:37:39.261                : en:20

     

  • Peso: 3.79 GiB

Sinopsis

Después de que la familia de un hombre muere en lo que parece ser un asesinato, recibe una llamada telefónica de uno de los muertos, su sobrina. No está seguro de si ella es un fantasma o si se está volviendo loco, pero resulta que no lo es. En cambio, sus llamadas lo ayudan a reescribir la historia.

Ficha técnica

Video trailer de la película

Enlaces de descarga

Rip de Bluray

Descargar Don’t Let Go (2019) WEB-DL 1080p Latino




Aportes de DPeliculasHDmega la pass es:dpeliculashdmega.org Aportes de CinemaniaHD la pass es:cinemaniahdd.com
Guardado en : Ciencia ficción , Suspenso , Terror

Películas relacionadas

descargar Don’t Let Go (2019) WEB-DL 1080p Latino WEBDL 1080p gratis, Don’t Let Go (2019) WEB-DL 1080p Latino WEBDL mega 1 link, Don’t Let Go (2019) WEB-DL 1080p Latino WEBDL pelicula completa, descargar Don’t Let Go (2019) WEB-DL 1080p Latino WEBDL gratis en mega.

Don’t Let Go (2019) WEB-DL 1080p Latino pelicula full hd, Don’t Let Go (2019) WEB-DL 1080p Latino mega latino, Don’t Let Go (2019) WEB-DL 1080p Latino 4k latino, Don’t Let Go (2019) WEB-DL 1080p Latino pelicula completa, Don’t Let Go (2019) WEB-DL 1080p Latino descargar gratis, descargar Don’t Let Go (2019) WEB-DL 1080p Latino pelicula latino, Don’t Let Go (2019) WEB-DL 1080p Latino 1 link mega, Don’t Let Go (2019) WEB-DL 1080p Latino 1 link google drive, Don’t Let Go (2019) WEB-DL 1080p Latino hd 1080p latino.
Comentarios 0