×

¿Problemas para descargar con Mozilla, EDGE? Deshabilita la opción "Abrir vinculos en una pestaña nueva" tal como lo muestra ésta imagen.

Don’t Let Go (2019) REMUX 1080p Latino

361 vistas

Información de Don’t Let Go (2019) REMUX 1080p Latino

Datos de la película

  • Calidad: Full 1080p
  • Audio: Español Latino DTS 5.1 BLURAY - Ingles DTS-HD 5.1 BLURAY
  • Subtitulos: Español PGS - Ingles PGS
  • Resolución: 1920x1080p
  • Formato: MKV
  • Codec: H.264
  • Encoder: CinefiloCool
  • Mediainfo: Clic para Mostrar Datos Ver
  • Don't Let Go (2019) REMUX 1080p Latino-CMHDD.mkv
    Format                      : Matroska
    Format version              : Version 4
    File size                   : 26.1 GiB
    Duration                    : 1 h 43 min
    Overall bit rate mode       : Variable
    Overall bit rate            : 36.2 Mb/s
    Movie name                  : CinemaniaHDD.Net
    Encoded date                : UTC 2019-11-26 23:49:52
    Writing application         : mkvmerge v38.0.0 ('The Silent Type') 64-bit
    Writing library             : libebml v1.3.9 + libmatroska v1.5.2
    Attachments                 : CINEMANIAHD.png

    Video
    ID                          : 1
    Format                      : AVC
    Format/Info                 : Advanced Video Codec
    Format profile              : High@L4.1
    Format settings             : CABAC / 4 Ref Frames
    Format settings, CABAC      : Yes
    Format settings, ReFrames   : 4 frames
    Codec ID                    : V_MPEG4/ISO/AVC
    Duration                    : 1 h 43 min
    Bit rate mode               : Variable
    Bit rate                    : 31.4 Mb/s
    Maximum bit rate            : 35.2 Mb/s
    Width                       : 1 920 pixels
    Height                      : 1 080 pixels
    Display aspect ratio        : 16:9
    Frame rate mode             : Constant
    Frame rate                  : 23.976 (24000/1001) FPS
    Color space                 : YUV
    Chroma subsampling          : 4:2:0
    Bit depth                   : 8 bits
    Scan type                   : Progressive
    Bits/(Pixel*Frame)          : 0.633
    Stream size                 : 22.7 GiB (87%)
    Title                       : Full HD1080p [REMUX]
    Default                     : Yes
    Forced                      : Yes

    Audio #1
    ID                          : 2
    Format                      : DTS
    Format/Info                 : Digital Theater Systems
    Codec ID                    : A_DTS
    Duration                    : 1 h 43 min
    Bit rate mode               : Constant
    Bit rate                    : 768 kb/s
    Channel(s)                  : 6 channels
    Channel layout              : C L R Ls Rs LFE
    Sampling rate               : 48.0 kHz
    Frame rate                  : 93.750 FPS (512 SPF)
    Bit depth                   : 24 bits
    Compression mode            : Lossy
    Stream size                 : 568 MiB (2%)
    Title                       : DTS_5.1_Bluray_Esp
    Language                    : Spanish
    Default                     : Yes
    Forced                      : Yes

    Audio #2
    ID                          : 3
    Format                      : DTS XLL
    Format/Info                 : Digital Theater Systems
    Commercial name             : DTS-HD Master Audio
    Codec ID                    : A_DTS
    Duration                    : 1 h 43 min
    Bit rate mode               : Variable
    Bit rate                    : 3 312 kb/s
    Channel(s)                  : 6 channels
    Channel layout              : C L R Ls Rs LFE
    Sampling rate               : 48.0 kHz
    Frame rate                  : 93.750 FPS (512 SPF)
    Bit depth                   : 24 bits
    Compression mode            : Lossless
    Stream size                 : 2.39 GiB (9%)
    Title                       : DTS-HD_5.1_Bluray_Eng
    Language                    : English
    Default                     : No
    Forced                      : No

    Audio #3
    ID                          : 4
    Format                      : AC-3
    Format/Info                 : Audio Coding 3
    Commercial name             : Dolby Digital
    Codec ID                    : A_AC3
    Duration                    : 1 h 43 min
    Bit rate mode               : Constant
    Bit rate                    : 640 kb/s
    Channel(s)                  : 6 channels
    Channel layout              : L R C LFE Ls Rs
    Sampling rate               : 48.0 kHz
    Frame rate                  : 31.250 FPS (1536 SPF)
    Bit depth                   : 16 bits
    Compression mode            : Lossy
    Stream size                 : 473 MiB (2%)
    Title                       : AC3_5.1_Bluray_Esp
    Language                    : Spanish
    Service kind                : Complete Main
    Default                     : No
    Forced                      : No

    Text #1
    ID                          : 5
    Format                      : PGS
    Muxing mode                 : zlib
    Codec ID                    : S_HDMV/PGS
    Codec ID/Info               : Picture based subtitle format used on BDs/HD-DVDs
    Duration                    : 1 h 29 min
    Bit rate                    : 698 b/s
    Count of elements           : 52
    Stream size                 : 458 KiB (0%)
    Title                       : Sub_Forzados [PGS]
    Language                    : Spanish
    Default                     : Yes
    Forced                      : Yes

    Text #2
    ID                          : 6
    Format                      : PGS
    Muxing mode                 : zlib
    Codec ID                    : S_HDMV/PGS
    Codec ID/Info               : Picture based subtitle format used on BDs/HD-DVDs
    Duration                    : 1 h 41 min
    Bit rate                    : 30.4 kb/s
    Count of elements           : 2374
    Stream size                 : 22.1 MiB (0%)
    Title                       : Sub_Esp [PGS]
    Language                    : Spanish
    Default                     : No
    Forced                      : No

    Text #3
    ID                          : 7
    Format                      : PGS
    Muxing mode                 : zlib
    Codec ID                    : S_HDMV/PGS
    Codec ID/Info               : Picture based subtitle format used on BDs/HD-DVDs
    Duration                    : 1 h 35 min
    Bit rate                    : 40.2 kb/s
    Count of elements           : 2619
    Stream size                 : 27.5 MiB (0%)
    Title                       : Sub_Eng [PGS]
    Language                    : English
    Default                     : No
    Forced                      : No

    Text #4
    ID                          : 8
    Format                      : UTF-8
    Codec ID                    : S_TEXT/UTF8
    Codec ID/Info               : UTF-8 Plain Text
    Duration                    : 1 h 3 min
    Bit rate                    : 1 b/s
    Count of elements           : 25
    Stream size                 : 689 Bytes (0%)
    Title                       : Sub_Forzados
    Language                    : Spanish
    Default                     : No
    Forced                      : No

    Text #5
    ID                          : 9
    Format                      : UTF-8
    Codec ID                    : S_TEXT/UTF8
    Codec ID/Info               : UTF-8 Plain Text
    Duration                    : 1 h 35 min
    Bit rate                    : 54 b/s
    Count of elements           : 1185
    Stream size                 : 37.7 KiB (0%)
    Title                       : Sub_Esp
    Language                    : Spanish
    Default                     : No
    Forced                      : No

    Menu
    00:00:00.000                : en:Chapter 01
    00:05:51.601                : en:Chapter 02
    00:10:38.679                : en:Chapter 03
    00:14:29.410                : en:Chapter 04
    00:21:05.931                : en:Chapter 05
    00:24:03.442                : en:Chapter 06
    00:34:01.539                : en:Chapter 07
    00:39:17.355                : en:Chapter 08
    00:45:06.120                : en:Chapter 09
    00:50:17.681                : en:Chapter 10
    00:57:30.530                : en:Chapter 11
    01:03:50.493                : en:Chapter 12
    01:07:27.334                : en:Chapter 13
    01:13:07.966                : en:Chapter 14
    01:16:40.470                : en:Chapter 15
    01:20:48.468                : en:Chapter 16
    01:24:14.674                : en:Chapter 17
    01:30:36.431                : en:Chapter 18
    01:34:38.964                : en:Chapter 19
    01:37:38.644                : en:Chapter 20

  • Peso: 26.1 GiB

Sinopsis

Descargar Don’t Let Go (2019) REMUX 1080p Latino. Después de que la familia de un hombre muriese en lo que parece ser un asesinato, ésta recibe una llamada de su sobrina, una de las supuestos fallecidas. Aunque al principio no sabe si se trata de un fantasma o de si está perdiendo por completo la cabeza, finalmente descubre que su familiar sigue con vida. Entre ambos tratarán de averiguar qué es lo que ha sucedido realmente.

Ficha técnica

Video trailer de la película

Enlaces de descarga

Rip de Bluray

Descargar Don’t Let Go (2019) REMUX 1080p Latino




Aportes de DPeliculasHDmega la pass es:dpeliculashdmega.org Aportes de CinemaniaHD la pass es:cinemaniahdd.com

Películas relacionadas

  • Resurrección (2022) AMZN WEB-DL 1080p Latino

    Resurrección (2022) AMZN WEB-DL 1080p Latino

    2022
    Resurrección (2022) AMZN WEB-DL 1080p Latino

    1h 43m 2022

    Descargar Resurrección (2022) AMZN Web-DL 1080p Latino. La vida cuidadosamente construida de una mujer...

    Director: Michael Kefeyalew

    Género: Drama

    Actores: Zarra Kaahn

  • Walker (2022) Temporada 3 WEB-DL 1080p Latino

    Walker (2022) Temporada 3 WEB-DL 1080p Latino

    2021
    Walker (2022) Temporada 3 WEB-DL 1080p Latino

    0h 45m 2021

    Reboot de la serie de 1993 que se centra en Walker cuando regresa de años de incógnito. Viudo y...

    Director: Anna Fricke

    Género: Action & Adventure

    Actores: Violet Brinson

  • El Lobo Y El Leon (2021) REMUX 1080p Latino

    El Lobo Y El Leon (2021) REMUX 1080p Latino

    2021
    El Lobo Y El Leon (2021) REMUX 1080p Latino

    1h 39m 2021

    Descargar El Lobo Y El Leon (2021) REMUX 1080p Latino. A la muerte de su abuelo, Alma, un joven pianista...

    Director: Gilles de Maistre

    Género: Aventura

    Actores: Victor Cornfoot

  • A Christmas Mystery (2022) HMAX WEB-DL 1080p Latino

    A Christmas Mystery (2022) HMAX WEB-DL 1080p Latino

    2022
    A Christmas Mystery (2022) HMAX WEB-DL 1080p Latino

    1h 27m 2022

    Cuando acusan falsamente al padre de su mejor amiga de robar las preciadas campanas de la ciudad, una...

    Director: Alex Ranarivelo

    Género: Comedia

    Actores: Violet McGraw

descargar Don’t Let Go (2019) REMUX 1080p Latino Full 1080p 1080p gratis, Don’t Let Go (2019) REMUX 1080p Latino Full 1080p mega 1 link, Don’t Let Go (2019) REMUX 1080p Latino Full 1080p pelicula completa, descargar Don’t Let Go (2019) REMUX 1080p Latino Full 1080p gratis en mega.

Don’t Let Go (2019) REMUX 1080p Latino pelicula full hd, Don’t Let Go (2019) REMUX 1080p Latino mega latino, Don’t Let Go (2019) REMUX 1080p Latino 4k latino, Don’t Let Go (2019) REMUX 1080p Latino pelicula completa, Don’t Let Go (2019) REMUX 1080p Latino descargar gratis, descargar Don’t Let Go (2019) REMUX 1080p Latino pelicula latino, Don’t Let Go (2019) REMUX 1080p Latino 1 link mega, Don’t Let Go (2019) REMUX 1080p Latino 1 link google drive, Don’t Let Go (2019) REMUX 1080p Latino hd 1080p latino.
Comentarios 0