×

¿Problemas para descargar con Mozilla, EDGE? Deshabilita la opción "Abrir vinculos en una pestaña nueva" tal como lo muestra ésta imagen.

Don’t F**k With Cats: Hunting an Internet Killer (2019) NF WEB-DL 1080p Latino

1.728 vistas

Información de Don’t F**k With Cats: Hunting an Internet Killer (2019) NF WEB-DL 1080p Latino

Datos de la película

  • Calidad: WEBDL
  • Audio: Español Latino AC3 5.1 Netflix - Ingles AC3 5.1 Netflix
  • Subtitulos: Español Latino SRT- FORZADOS SRT
  • Resolución: 1920x1080
  • Formato: MKV
  • Codec: H.264
  • Encoder: cinemaniahdd
  • Mediainfo: Clic para Mostrar Datos Ver
  • Dont Fxxk With Cats - Hunting an Internet Killer S01E01 NF WEB-DL 1080p Latino.mkv
    Format                      : Matroska
    Format version              : Version 4
    File size                   : 1.85 GiB
    Duration                    : 1 h 5 min
    Overall bit rate mode       : Variable
    Overall bit rate            : 4 048 kb/s
    Movie name                  : Dont Fxxk With Cats - Hunting an Internet Killer S01E01 - CinemaniaHDD.Net
    Encoded date                : UTC 2019-12-19 04:49:24
    Writing application         : mkvmerge v38.0.0 ('The Silent Type') 64-bit
    Writing library             : libebml v1.3.9 + libmatroska v1.5.2

    Video
    ID                          : 1
    Format                      : AVC
    Format/Info                 : Advanced Video Codec
    Format profile              : Main@L4
    Format settings             : CABAC / 3 Ref Frames
    Format settings, CABAC      : Yes
    Format settings, ReFrames   : 3 frames
    Codec ID                    : V_MPEG4/ISO/AVC
    Duration                    : 1 h 5 min
    Bit rate mode               : Variable
    Bit rate                    : 3 278 kb/s
    Maximum bit rate            : 4 980 kb/s
    Width                       : 1 920 pixels
    Height                      : 1 080 pixels
    Display aspect ratio        : 16:9
    Frame rate mode             : Constant
    Frame rate                  : 23.976 (24000/1001) FPS
    Color space                 : YUV
    Chroma subsampling          : 4:2:0
    Bit depth                   : 8 bits
    Scan type                   : Progressive
    Bits/(Pixel*Frame)          : 0.066
    Stream size                 : 1.50 GiB (81%)
    Title                       : CinemaniaHDD
    Default                     : Yes
    Forced                      : No

    Audio #1
    ID                          : 2
    Format                      : AC-3
    Format/Info                 : Audio Coding 3
    Commercial name             : Dolby Digital
    Codec ID                    : A_AC3
    Duration                    : 1 h 5 min
    Bit rate mode               : Constant
    Bit rate                    : 384 kb/s
    Channel(s)                  : 6 channels
    Channel layout              : L R C LFE Ls Rs
    Sampling rate               : 48.0 kHz
    Frame rate                  : 31.250 FPS (1536 SPF)
    Bit depth                   : 16 bits
    Compression mode            : Lossy
    Stream size                 : 180 MiB (9%)
    Title                       : Español latino [CinemaniaHDD]
    Language                    : Spanish
    Service kind                : Complete Main
    Default                     : Yes
    Forced                      : No

    Audio #2
    ID                          : 3
    Format                      : AC-3
    Format/Info                 : Audio Coding 3
    Commercial name             : Dolby Digital
    Codec ID                    : A_AC3
    Duration                    : 1 h 5 min
    Bit rate mode               : Constant
    Bit rate                    : 384 kb/s
    Channel(s)                  : 6 channels
    Channel layout              : L R C LFE Ls Rs
    Sampling rate               : 48.0 kHz
    Frame rate                  : 31.250 FPS (1536 SPF)
    Bit depth                   : 16 bits
    Compression mode            : Lossy
    Stream size                 : 180 MiB (9%)
    Title                       : Inglés [CinemaniaHDD]
    Language                    : English
    Service kind                : Complete Main
    Default                     : No
    Forced                      : No

    Text #1
    ID                          : 4
    Format                      : UTF-8
    Codec ID                    : S_TEXT/UTF8
    Codec ID/Info               : UTF-8 Plain Text
    Duration                    : 1 h 4 min
    Bit rate                    : 16 b/s
    Count of elements           : 245
    Stream size                 : 7.77 KiB (0%)
    Title                       : Forzados [CinemaniaHDD]
    Language                    : Spanish
    Default                     : Yes
    Forced                      : Yes

    Text #2
    ID                          : 5
    Format                      : UTF-8
    Codec ID                    : S_TEXT/UTF8
    Codec ID/Info               : UTF-8 Plain Text
    Duration                    : 1 h 4 min
    Bit rate                    : 73 b/s
    Count of elements           : 1004
    Stream size                 : 35.1 KiB (0%)
    Title                       : Español latino [CinemaniaHDD]
    Language                    : Spanish
    Default                     : No
    Forced                      : No

     

  • Peso: 1.85 GiB C/U

Sinopsis

Un grupo de buscadores de justicia en línea rastrea a un tipo que publicó un video de él matando gatitos.

Ficha técnica

  • Titulo original: Don't F**k With Cats: Hunting an Internet Killer
  • Fecha de lanzamiento: 18-12-2019
  • Género: Crimen, Documental, Netflix, Series

Video trailer de la película

Enlaces de descarga

Rip de Bluray

Descargar Don’t F**k With Cats: Hunting an Internet Killer (2019) NF WEB-DL 1080p Latino




Aportes de DPeliculasHDmega la pass es:dpeliculashdmega.org Aportes de CinemaniaHD la pass es:cinemaniahdd.com
Guardado en : Crimen , Documental , Netflix , Series

Películas relacionadas

descargar Don’t F**k With Cats: Hunting an Internet Killer (2019) NF WEB-DL 1080p Latino WEBDL 1080p gratis, Don’t F**k With Cats: Hunting an Internet Killer (2019) NF WEB-DL 1080p Latino WEBDL mega 1 link, Don’t F**k With Cats: Hunting an Internet Killer (2019) NF WEB-DL 1080p Latino WEBDL serie completa, descargar Don’t F**k With Cats: Hunting an Internet Killer (2019) NF WEB-DL 1080p Latino WEBDL gratis en mega.

Don’t F**k With Cats: Hunting an Internet Killer (2019) NF WEB-DL 1080p Latino pelicula full hd, Don’t F**k With Cats: Hunting an Internet Killer (2019) NF WEB-DL 1080p Latino mega latino, Don’t F**k With Cats: Hunting an Internet Killer (2019) NF WEB-DL 1080p Latino 4k latino, Don’t F**k With Cats: Hunting an Internet Killer (2019) NF WEB-DL 1080p Latino pelicula completa, Don’t F**k With Cats: Hunting an Internet Killer (2019) NF WEB-DL 1080p Latino descargar gratis, descargar Don’t F**k With Cats: Hunting an Internet Killer (2019) NF WEB-DL 1080p Latino pelicula latino, Don’t F**k With Cats: Hunting an Internet Killer (2019) NF WEB-DL 1080p Latino 1 link mega, Don’t F**k With Cats: Hunting an Internet Killer (2019) NF WEB-DL 1080p Latino 1 link google drive, Don’t F**k With Cats: Hunting an Internet Killer (2019) NF WEB-DL 1080p Latino hd 1080p latino.
Comentarios 0