×

¿Problemas para descargar con Mozilla, EDGE? Deshabilita la opción "Abrir vinculos en una pestaña nueva" tal como lo muestra ésta imagen.

No respires (2016) OPEN MATTE Web-DL 1080p Latino

226 vistas

Información de No respires (2016) OPEN MATTE Web-DL 1080p Latino

Datos de la película

  • Calidad: WEBDL
  • Audio: Se especifica abajo de la Sinopsis
  • Subtitulos: Español Latino SRT - Ingles SRT
  • Resolución: 1920x1080p
  • Formato: MKV
  • Codec: H.264
  • Encoder: CinefiloCool
  • Mediainfo: Clic para Mostrar Datos Ver
  • No Respires (2016) OPEN MATTE Web 1080p Latino-CMHDD.mkv
    Format                      : Matroska
    Format version              : Version 4
    File size                   : 4.22 GiB
    Duration                    : 1 h 28 min
    Overall bit rate mode       : Variable
    Overall bit rate            : 6 840 kb/s
    Movie name                  : Don't Breathe (2016) CinemaniaHDD.Net
    Encoded date                : UTC 2021-09-04 04:16:13
    Writing application         : mkvmerge v56.1.0 ('My Friend') 64-bit
    Writing library             : libebml v1.4.2 + libmatroska v1.6.4
    Attachments                 : CINEMANIAHD.png

    Video
    ID                          : 1
    Format                      : AVC
    Format/Info                 : Advanced Video Codec
    Format profile              : High@L4.1
    Format settings             : CABAC / 4 Ref Frames
    Format settings, CABAC      : Yes
    Format settings, Reference  : 4 frames
    Codec ID                    : V_MPEG4/ISO/AVC
    Duration                    : 1 h 28 min
    Bit rate mode               : Variable
    Bit rate                    : 4 919 kb/s
    Maximum bit rate            : 40.0 Mb/s
    Width                       : 1 920 pixels
    Height                      : 1 080 pixels
    Display aspect ratio        : 16:9
    Frame rate mode             : Constant
    Frame rate                  : 23.976 (24000/1001) FPS
    Color space                 : YUV
    Chroma subsampling          : 4:2:0
    Bit depth                   : 8 bits
    Scan type                   : Progressive
    Bits/(Pixel*Frame)          : 0.099
    Stream size                 : 3.04 GiB (72%)
    Title                       : Web Open Matte [CinemaniaHDD]
    Language                    : English
    Default                     : Yes
    Forced                      : Yes

    Audio #1
    ID                          : 2
    Format                      : AC-3
    Format/Info                 : Audio Coding 3
    Commercial name             : Dolby Digital
    Codec ID                    : A_AC3
    Duration                    : 1 h 28 min
    Bit rate mode               : Constant
    Bit rate                    : 640 kb/s
    Channel(s)                  : 6 channels
    Channel layout              : L R C LFE Ls Rs
    Sampling rate               : 48.0 kHz
    Frame rate                  : 31.250 FPS (1536 SPF)
    Compression mode            : Lossy
    Stream size                 : 405 MiB (9%)
    Title                       : Español Latino AC3 [CinemaniaHDD]
    Language                    : Spanish
    Service kind                : Complete Main
    Default                     : Yes
    Forced                      : Yes

    Audio #2
    ID                          : 3
    Format                      : E-AC-3
    Format/Info                 : Enhanced AC-3
    Commercial name             : Dolby Digital Plus
    Codec ID                    : A_EAC3
    Duration                    : 1 h 28 min
    Bit rate mode               : Constant
    Bit rate                    : 640 kb/s
    Channel(s)                  : 6 channels
    Channel layout              : L R C LFE Ls Rs
    Sampling rate               : 48.0 kHz
    Frame rate                  : 31.250 FPS (1536 SPF)
    Compression mode            : Lossy
    Stream size                 : 405 MiB (9%)
    Title                       : Ingles [CinemaniaHDD]
    Language                    : English
    Service kind                : Complete Main
    Default                     : No
    Forced                      : No

    Audio #3
    ID                          : 4
    Format                      : E-AC-3
    Format/Info                 : Enhanced AC-3
    Commercial name             : Dolby Digital Plus
    Codec ID                    : A_EAC3
    Duration                    : 1 h 28 min
    Bit rate mode               : Constant
    Bit rate                    : 640 kb/s
    Channel(s)                  : 6 channels
    Channel layout              : L R C LFE Ls Rs
    Sampling rate               : 48.0 kHz
    Frame rate                  : 31.250 FPS (1536 SPF)
    Compression mode            : Lossy
    Stream size                 : 405 MiB (9%)
    Title                       : Español Latino EAC3 [CinemaniaHDD]
    Language                    : Spanish
    Service kind                : Complete Main
    Default                     : No
    Forced                      : No

    Text #1
    ID                          : 5
    Format                      : UTF-8
    Codec ID                    : S_TEXT/UTF8
    Codec ID/Info               : UTF-8 Plain Text
    Duration                    : 1 h 22 min
    Bit rate                    : 0 b/s
    Count of elements           : 15
    Stream size                 : 346 Bytes (0%)
    Title                       : Forzados-SRT [CinemaniaHDD]
    Language                    : Spanish
    Default                     : Yes
    Forced                      : Yes

    Text #2
    ID                          : 6
    Format                      : UTF-8
    Codec ID                    : S_TEXT/UTF8
    Codec ID/Info               : UTF-8 Plain Text
    Duration                    : 1 h 26 min
    Bit rate                    : 21 b/s
    Count of elements           : 503
    Stream size                 : 13.3 KiB (0%)
    Title                       : Español-SRT [CinemaniaHDD]
    Language                    : Spanish
    Default                     : No
    Forced                      : No

    Text #3
    ID                          : 7
    Format                      : UTF-8
    Codec ID                    : S_TEXT/UTF8
    Codec ID/Info               : UTF-8 Plain Text
    Duration                    : 1 h 20 min
    Bit rate                    : 24 b/s
    Count of elements           : 601
    Stream size                 : 14.6 KiB (0%)
    Title                       : Ingles-SRT [CinemaniaHDD]
    Language                    : English
    Default                     : No
    Forced                      : No

  • Peso: 4.22 GiB

Sinopsis

Descargar No respires (2016) OPEN MATTE Web-DL 1080p Latino. Unos jóvenes ladrones creen haber encontrado la oportunidad de cometer el robo perfecto. Su objetivo será un ciego solitario, poseedor de millones de dólares ocultos. Pero tan pronto como entran en su casa serán conscientes de su error, pues se encontrarán atrapados y luchando por sobrevivir contra un psicópata con sus propios y temibles secretos.

Audio Español Latino EAC3 5.1 + AC3 5.1 WebDL – Ingles EAC3 5.1 WebDL

Ficha técnica

Video trailer de la película

Enlaces de descarga

Rip de Bluray

Descargar No respires (2016) OPEN MATTE Web-DL 1080p Latino




Aportes de DPeliculasHDmega la pass es:dpeliculashdmega.org Aportes de CinemaniaHD la pass es:cinemaniahdd.com
Guardado en : OPEN MATTE , Suspenso , Terror

Películas relacionadas

descargar No respires (2016) OPEN MATTE Web-DL 1080p Latino WEBDL 1080p gratis, No respires (2016) OPEN MATTE Web-DL 1080p Latino WEBDL mega 1 link, No respires (2016) OPEN MATTE Web-DL 1080p Latino WEBDL pelicula completa, descargar No respires (2016) OPEN MATTE Web-DL 1080p Latino WEBDL gratis en mega.

No respires (2016) OPEN MATTE Web-DL 1080p Latino pelicula full hd, No respires (2016) OPEN MATTE Web-DL 1080p Latino mega latino, No respires (2016) OPEN MATTE Web-DL 1080p Latino 4k latino, No respires (2016) OPEN MATTE Web-DL 1080p Latino pelicula completa, No respires (2016) OPEN MATTE Web-DL 1080p Latino descargar gratis, descargar No respires (2016) OPEN MATTE Web-DL 1080p Latino pelicula latino, No respires (2016) OPEN MATTE Web-DL 1080p Latino 1 link mega, No respires (2016) OPEN MATTE Web-DL 1080p Latino 1 link google drive, No respires (2016) OPEN MATTE Web-DL 1080p Latino hd 1080p latino.
Comentarios 0