×

¿Problemas para descargar con Mozilla, EDGE? Deshabilita la opción "Abrir vinculos en una pestaña nueva" tal como lo muestra ésta imagen.

Don’t Breathe 2 (2021) REMUX 1080p Latino – CMHDD

74 vistas

Información de Don’t Breathe 2 (2021) REMUX 1080p Latino – CMHDD

Datos de la película

  • Calidad: Full 1080p
  • Audio: Español Latino AC3 5.1 BLURAY - Ingles DTS 5.1 BLURAY
  • Subtitulos: Español Latino SRT- FORZADOS SRT
  • Resolución: 19201080p
  • Formato: MKV
  • Codec: H.264
  • Encoder: Dracarys
  • Mediainfo: Clic para Mostrar Datos Ver
  • Format                      : Matroska
    Format version              : Version 4
    File size                   : 19.0 GiB
    Duration                    : 1 h 38 min
    Overall bit rate mode       : Variable
    Overall bit rate            : 27.7 Mb/s
    Movie name                  : Don't Breathe 2 (2021) REMUX 1080p Latino - CMHDD
    Encoded date                : UTC 2023-12-20 21:36:16
    Writing application         : mkvmerge v47.0.0 ('Black Flag') 64-bit
    Writing library             : libebml v1.3.10 + libmatroska v1.5.2

    Video
    ID                          : 1
    ID in the original source m : 4113 (0x1011)
    Format                      : AVC
    Format/Info                 : Advanced Video Codec
    Format profile              : High@L4.1
    Format settings             : CABAC / 2 Ref Frames
    Format settings, CABAC      : Yes
    Format settings, Reference  : 2 frames
    Format settings, GOP        : M=1, N=10
    Codec ID                    : V_MPEG4/ISO/AVC
    Duration                    : 1 h 38 min
    Bit rate mode               : Variable
    Bit rate                    : 24.8 Mb/s
    Width                       : 1 920 pixels
    Height                      : 1 080 pixels
    Display aspect ratio        : 16:9
    Frame rate mode             : Constant
    Frame rate                  : 23.976 (24000/1001) FPS
    Color space                 : YUV
    Chroma subsampling          : 4:2:0
    Bit depth                   : 8 bits
    Scan type                   : Progressive
    Bits/(Pixel*Frame)          : 0.500
    Stream size                 : 17.1 GiB (90%)
    Language                    : English
    Default                     : No
    Forced                      : No
    Original source medium      : Blu-ray

    Audio #1
    ID                          : 2
    ID in the original source m : 4357 (0x1105)
    Format                      : AC-3
    Format/Info                 : Audio Coding 3
    Commercial name             : Dolby Digital
    Codec ID                    : A_AC3
    Duration                    : 1 h 38 min
    Bit rate mode               : Constant
    Bit rate                    : 640 kb/s
    Channel(s)                  : 6 channels
    Channel layout              : L R C LFE Ls Rs
    Sampling rate               : 48.0 kHz
    Frame rate                  : 31.250 FPS (1536 SPF)
    Compression mode            : Lossy
    Stream size                 : 450 MiB (2%)
    Language                    : Spanish
    Service kind                : Complete Main
    Default                     : Yes
    Forced                      : Yes
    Original source medium      : Blu-ray

    Audio #2
    ID                          : 3
    ID in the original source m : 4352 (0x1100)
    Format                      : DTS XLL
    Format/Info                 : Digital Theater Systems
    Commercial name             : DTS-HD Master Audio
    Codec ID                    : A_DTS
    Duration                    : 1 h 38 min
    Bit rate mode               : Variable
    Bit rate                    : 2 235 kb/s
    Channel(s)                  : 6 channels
    Channel layout              : C L R Ls Rs LFE
    Sampling rate               : 48.0 kHz
    Frame rate                  : 93.750 FPS (512 SPF)
    Bit depth                   : 16 bits
    Compression mode            : Lossless
    Stream size                 : 1.53 GiB (8%)
    Language                    : English
    Default                     : No
    Forced                      : No
    Original source medium      : Blu-ray

    Text #1
    ID                          : 4
    Format                      : UTF-8
    Codec ID                    : S_TEXT/UTF8
    Codec ID/Info               : UTF-8 Plain Text
    Duration                    : 1 h 36 min
    Bit rate                    : 0 b/s
    Frame rate                  : 0.000 FPS
    Count of elements           : 2
    Stream size                 : 61.0 Bytes (0%)
    Title                       : Forzados
    Language                    : Spanish
    Default                     : No
    Forced                      : No

    Text #2
    ID                          : 5
    Format                      : UTF-8
    Codec ID                    : S_TEXT/UTF8
    Codec ID/Info               : UTF-8 Plain Text
    Duration                    : 1 h 28 min
    Bit rate                    : 16 b/s
    Frame rate                  : 0.084 FPS
    Count of elements           : 445
    Stream size                 : 10.5 KiB (0%)
    Language                    : Spanish
    Default                     : No
    Forced                      : No

    Text #3
    ID                          : 6
    ID in the original source m : 4618 (0x120A)
    Format                      : PGS
    Muxing mode                 : zlib
    Codec ID                    : S_HDMV/PGS
    Codec ID/Info               : Picture based subtitle format used on BDs/HD-DVDs
    Duration                    : 1 h 36 min
    Bit rate                    : 55 b/s
    Frame rate                  : 0.001 FPS
    Count of elements           : 4
    Stream size                 : 38.8 KiB (0%)
    Title                       : Forzados
    Language                    : Spanish
    Default                     : No
    Forced                      : No
    Original source medium      : Blu-ray

    Text #4
    ID                          : 7
    ID in the original source m : 4618 (0x120A)
    Format                      : PGS
    Muxing mode                 : zlib
    Codec ID                    : S_HDMV/PGS
    Codec ID/Info               : Picture based subtitle format used on BDs/HD-DVDs
    Duration                    : 1 h 36 min
    Bit rate                    : 9 040 b/s
    Frame rate                  : 0.155 FPS
    Count of elements           : 896
    Stream size                 : 6.22 MiB (0%)
    Language                    : Spanish
    Default                     : No
    Forced                      : No
    Original source medium      : Blu-ray

    Menu
    00:00:00.000                : en:Chapter 01
    00:04:06.371                : en:Chapter 02
    00:08:39.352                : en:Chapter 03
    00:13:10.790                : en:Chapter 04
    00:19:12.734                : en:Chapter 05
    00:24:10.532                : en:Chapter 06
    00:28:03.807                : en:Chapter 07
    00:31:33.683                : en:Chapter 08
    00:37:15.107                : en:Chapter 09
    00:41:25.649                : en:Chapter 10
    00:45:21.927                : en:Chapter 11
    00:50:36.992                : en:Chapter 12
    00:55:42.797                : en:Chapter 13
    01:02:19.652                : en:Chapter 14
    01:09:26.537                : en:Chapter 15
    01:18:19.986                : en:Chapter 16

     

  • Peso: 19.0 GiB

Sinopsis

El ciego se ha estado escondiendo durante años en una cabaña aislada y ha acogido y criado a una niña que perdió a sus padres en un incendio en una casa. Su tranquila existencia se hace añicos cuando un grupo de secuestradores aparece y se lleva a la niña, lo que obliga al Ciego a dejar su refugio seguro para rescatarla.

Ficha técnica

  • Titulo original: Don't Breathe 2
  • Fecha de lanzamiento: 12-08-2021 (United States of America)
  • Director: Rodo Sayagues
  • Género: Suspenso, Terror

Video trailer de la película

Enlaces de descarga

Rip de Bluray

Descargar Don’t Breathe 2 (2021) REMUX 1080p Latino – CMHDD




Aportes de DPeliculasHDmega la pass es:dpeliculashdmega.org Aportes de CinemaniaHD la pass es:cinemaniahdd.com Aportes recientes:cinemaniahdd.net
Guardado en : Suspenso , Terror

Películas relacionadas

  • El Fin de Los Tiempos (2008) Full HD 1080p Latino-CMHDD

    El Fin de Los Tiempos (2008) Full HD 1080p Latino-CMHDD

    2008
    El Fin de Los Tiempos (2008) Full HD 1080p Latino-CMHDD

    1h 30m 2008

    Descargar El Fin de Los Tiempos (2008) Full HD 1080p Latino-CMHDD. En unos minutos, en las principales...

    Director: Mary Cybulski

    Género: Ciencia ficción

    Actores: Zooey Deschanel

  • El Fin de Los Tiempos (2008) REMUX 1080p Latino-CMHDD

    El Fin de Los Tiempos (2008) REMUX 1080p Latino-CMHDD

    2008
    El Fin de Los Tiempos (2008) REMUX 1080p Latino-CMHDD

    1h 30m 2008

    Descargar El Fin de Los Tiempos (2008) REMUX 1080p Latino-CMHDD. En unos minutos, en las principales...

    Director: M. Night Shyamalan

    Género: Ciencia ficción

    Actores: Zooey Deschanel

  • Victor Frankenstein (2015) REMUX 1080p Latino-CMHDD

    Victor Frankenstein (2015) REMUX 1080p Latino-CMHDD

    2015
    Victor Frankenstein (2015) REMUX 1080p Latino-CMHDD

    1h 50m 2015

    Descargar Victor Frankenstein (2015) REMUX 1080p Latino-CMHDD. En los ambiciosos planes del doctor para...

    Director: Toby Ford

    Género: Ciencia ficción

    Actores: Will Keen

descargar Don’t Breathe 2 (2021) REMUX 1080p Latino – CMHDD Full 1080p 1080p gratis, Don’t Breathe 2 (2021) REMUX 1080p Latino – CMHDD Full 1080p mega 1 link, Don’t Breathe 2 (2021) REMUX 1080p Latino – CMHDD Full 1080p pelicula completa, descargar Don’t Breathe 2 (2021) REMUX 1080p Latino – CMHDD Full 1080p gratis en mega.

Don’t Breathe 2 (2021) REMUX 1080p Latino – CMHDD pelicula full hd, Don’t Breathe 2 (2021) REMUX 1080p Latino – CMHDD mega latino, Don’t Breathe 2 (2021) REMUX 1080p Latino – CMHDD 4k latino, Don’t Breathe 2 (2021) REMUX 1080p Latino – CMHDD pelicula completa, Don’t Breathe 2 (2021) REMUX 1080p Latino – CMHDD descargar gratis, descargar Don’t Breathe 2 (2021) REMUX 1080p Latino – CMHDD pelicula latino, Don’t Breathe 2 (2021) REMUX 1080p Latino – CMHDD 1 link mega, Don’t Breathe 2 (2021) REMUX 1080p Latino – CMHDD 1 link google drive, Don’t Breathe 2 (2021) REMUX 1080p Latino – CMHDD hd 1080p latino.
Comentarios 0