×

¿Problemas para descargar con Mozilla, EDGE? Deshabilita la opción "Abrir vinculos en una pestaña nueva" tal como lo muestra ésta imagen.

Frío en la noche (1973) REMUX 1080p SUB

213 vistas

Información de Frío en la noche (1973) REMUX 1080p SUB

Datos de la película

  • Calidad: Full 1080p
  • Audio: Se especifica abajo de la Sinopsis
  • Subtitulos: Español Latino SRT
  • Resolución: 1920x1080p
  • Formato: MKV
  • Codec: H.264
  • Encoder: CinefiloCool
  • Mediainfo: Clic para Mostrar Datos Ver
  • Frio En la Noche (1973) REMUX 1080p SUB-CMHDD.mkv
    Format                      : Matroska
    Format version              : Version 4
    File size                   : 19.1 GiB
    Duration                    : 1 h 14 min
    Overall bit rate mode       : Variable
    Overall bit rate            : 36.9 Mb/s
    Movie name                  : Don't Be Afraid of the Dark (1973) CinemaniaHDD.Net
    Encoded date                : UTC 2021-04-22 04:39:44
    Writing application         : mkvmerge v51.0.0 ('I Wish') 64-bit
    Writing library             : libebml v1.4.0 + libmatroska v1.6.2
    Attachments                 : CINEMANIAHD.png

    Video
    ID                          : 1
    ID in the original source m : 4113 (0x1011)
    Format                      : AVC
    Format/Info                 : Advanced Video Codec
    Format profile              : High@L4.1
    Format settings             : CABAC / 4 Ref Frames
    Format settings, CABAC      : Yes
    Format settings, Reference  : 4 frames
    Codec ID                    : V_MPEG4/ISO/AVC
    Duration                    : 1 h 14 min
    Bit rate mode               : Variable
    Bit rate                    : 34.9 Mb/s
    Maximum bit rate            : 38.0 Mb/s
    Width                       : 1 920 pixels
    Height                      : 1 080 pixels
    Display aspect ratio        : 16:9
    Frame rate mode             : Constant
    Frame rate                  : 23.976 (24000/1001) FPS
    Color space                 : YUV
    Chroma subsampling          : 4:2:0
    Bit depth                   : 8 bits
    Scan type                   : Progressive
    Bits/(Pixel*Frame)          : 0.701
    Stream size                 : 18.1 GiB (94%)
    Title                       : REMUX HD1080p [CinemaniaHDD]
    Default                     : Yes
    Forced                      : Yes
    Original source medium      : Blu-ray

    Audio
    ID                          : 2
    ID in the original source m : 4352 (0x1100)
    Format                      : DTS XLL
    Format/Info                 : Digital Theater Systems
    Commercial name             : DTS-HD Master Audio
    Codec ID                    : A_DTS
    Duration                    : 1 h 14 min
    Bit rate mode               : Variable
    Bit rate                    : 1 991 kb/s
    Channel(s)                  : 2 channels
    Channel layout              : L R
    Sampling rate               : 48.0 kHz
    Frame rate                  : 93.750 FPS (512 SPF)
    Bit depth                   : 24 bits
    Compression mode            : Lossless
    Stream size                 : 1.03 GiB (5%)
    Title                       : Ingles [CinemaniaHDD]
    Language                    : English
    Default                     : Yes
    Forced                      : Yes
    Original source medium      : Blu-ray

    Text #1
    ID                          : 3
    Format                      : UTF-8
    Codec ID                    : S_TEXT/UTF8
    Codec ID/Info               : UTF-8 Plain Text
    Duration                    : 1 h 11 min
    Bit rate                    : 56 b/s
    Count of elements           : 669
    Stream size                 : 29.4 KiB (0%)
    Title                       : Español-SRT [CinemaniaHDD]
    Language                    : Spanish
    Default                     : Yes
    Forced                      : Yes

    Text #2
    ID                          : 4
    ID in the original source m : 4608 (0x1200)
    Format                      : PGS
    Muxing mode                 : zlib
    Codec ID                    : S_HDMV/PGS
    Codec ID/Info               : Picture based subtitle format used on BDs/HD-DVDs
    Duration                    : 1 h 13 min
    Bit rate                    : 71.8 kb/s
    Count of elements           : 2240
    Stream size                 : 37.9 MiB (0%)
    Title                       : Ingles-PGS [CinemaniaHDD]
    Language                    : English
    Default                     : No
    Forced                      : No
    Original source medium      : Blu-ray

    Menu
    00:00:00.000                : en:Chapter 01
    00:02:00.453                : en:Chapter 02
    00:05:55.938                : en:Chapter 03
    00:09:43.332                : en:Chapter 04
    00:11:52.837                : en:Chapter 05
    00:13:13.417                : en:Chapter 06
    00:16:11.679                : en:Chapter 07
    00:18:27.981                : en:Chapter 08
    00:20:28.268                : en:Chapter 09
    00:23:50.971                : en:Chapter 10
    00:26:55.614                : en:Chapter 11
    00:29:57.212                : en:Chapter 12
    00:32:52.303                : en:Chapter 13
    00:35:53.234                : en:Chapter 14
    00:39:42.588                : en:Chapter 15
    00:42:17.743                : en:Chapter 16
    00:45:43.157                : en:Chapter 17
    00:48:10.262                : en:Chapter 18
    00:52:37.070                : en:Chapter 19
    00:57:15.807                : en:Chapter 20
    01:02:57.523                : en:Chapter 21
    01:06:14.095                : en:Chapter 22
    01:09:50.394                : en:Chapter 23
    01:13:01.835                : en:Chapter 24

  • Peso: 19.1 GiB

Sinopsis

Descargar Frío en la noche (1973) REMUX 1080p SUB. En Don’t Be Afraid of the Dark Alex y Sally Farnham se mudan a la casa de la abuela de Sally, quien ha fallecido recientemente. Mientras se encuentran en proceso de reacondicionar la casa, Sally se topa con una chimenea sellada en el estudio de su abuela. Contratando a Mr. Harris, un carpintero que había trabajado en esa casa cuando la abuela de Sally la habitaba, le piden que derribe el sello. Pero Harris le advierte que algunas cosas deben quedarse como están. Sally comienza a percibir voces que provienen de la chimenea. Finalmente Sally consigue que la chimenea sea demolida, sin saber que ha liberado un portal donde moran unos pequeños demonios, que comienzan a deambular por la casa, y quieren apoderarse de Sally a toda costa.

 

Audio Ingles DTS-HD 2.0 Bluray
Creditos: Dracarys por el source BD50 Thanks!! 😀

NOTA:
Disponible Solo para VIP!! 

Ficha técnica

Video trailer de la película

Enlaces de descarga

Rip de Bluray

Descargar Frío en la noche (1973) REMUX 1080p SUB


Aportes de DPeliculasHDmega la pass es:dpeliculashdmega.org Aportes de CinemaniaHD la pass es:cinemaniahdd.com
Guardado en : Película de TV , Remux , Terror

Películas relacionadas

  • Un mundo extraño (2022) REMUX 1080p Latino

    Un mundo extraño (2022) REMUX 1080p Latino

    2022
    Un mundo extraño (2022) REMUX 1080p Latino

    1h 42m 2022

    Descargar Un mundo extraño (2022) REMUX 1080p. Un viaje a una tierra inexplorada y traicionera en la...

    Director: Thai Bettistea

    Género: Animación

    Actores: Reed Buck

  • Lobo Vikingo (2022) NF WEB-DL 1080p Latino

    Lobo Vikingo (2022) NF WEB-DL 1080p Latino

    2022
    Lobo Vikingo (2022) NF WEB-DL 1080p Latino

    1h 38m 2022

    Descargar Lobo Vikingo (2022) NF WEB-DL 1080p Latino. Thale (17) acaba de mudarse con sus padres a un...

    Director: Stig Svendsen

    Género: Netflix

    Actores: Vidar Magnussen

  • Corazón de tinta (2008) REMUX 1080p Latino

    Corazón de tinta (2008) REMUX 1080p Latino

    2008
    Corazón de tinta (2008) REMUX 1080p Latino

    1h 46m 2008

    Descargar Corazón de tinta (2008) REMUX 1080p Latino. Mortimer “Mo” Folchart y su hija de 12 años,...

    Director: Sharon Mansfield

    Género: Aventura

    Actores: Tereza Srbová

  • Juego de espías (2001) REMUX 1080p Latino

    Juego de espías (2001) REMUX 1080p Latino

    2001
    Juego de espías (2001) REMUX 1080p Latino

    1h 55m 2001

    Descargar Juego de espías (2001) REMUX 1080p Latino. El día de su jubilación, el veterano agente de...

    Director: Tony Scott

    Género: Acción

    Actores: Zsolt Zágoni

descargar Frío en la noche (1973) REMUX 1080p SUB Full 1080p 1080p gratis, Frío en la noche (1973) REMUX 1080p SUB Full 1080p mega 1 link, Frío en la noche (1973) REMUX 1080p SUB Full 1080p pelicula completa, descargar Frío en la noche (1973) REMUX 1080p SUB Full 1080p gratis en mega.

Frío en la noche (1973) REMUX 1080p SUB pelicula full hd, Frío en la noche (1973) REMUX 1080p SUB mega latino, Frío en la noche (1973) REMUX 1080p SUB 4k latino, Frío en la noche (1973) REMUX 1080p SUB pelicula completa, Frío en la noche (1973) REMUX 1080p SUB descargar gratis, descargar Frío en la noche (1973) REMUX 1080p SUB pelicula latino, Frío en la noche (1973) REMUX 1080p SUB 1 link mega, Frío en la noche (1973) REMUX 1080p SUB 1 link google drive, Frío en la noche (1973) REMUX 1080p SUB hd 1080p latino.
Comentarios 0