×

¿Problemas para descargar con Mozilla, EDGE? Deshabilita la opción "Abrir vinculos en una pestaña nueva" tal como lo muestra ésta imagen.

DOM (2021) Primera Temporada AMZN WEB-DL 1080p Latino

182 vistas

Información de DOM (2021) Primera Temporada AMZN WEB-DL 1080p Latino

Datos de la película

  • Calidad: WEBDL
  • Audio: Español Latino E-AC3 5.1 AMAZON - Ingles E-AC3 5.1 AMAZON
  • Subtitulos: Español Latino SRT- FORZADOS SRT
  • Resolución: 1920x1080
  • Formato: MKV
  • Codec: H.264
  • Encoder: cinemaniahdd
  • Mediainfo: Clic para Mostrar Datos Ver
  • DOM T01E01 AMZN WEB-DL 1080p Latino [CNMNHDD].mkv
    Format                      : Matroska
    Format version              : Version 4
    File size                   : 4.32 GiB
    Duration                    : 1 h 1 min
    Overall bit rate            : 10.1 Mb/s
    Movie name                  : DOM T01E01 - CinemaniaHDD.Net
    Encoded date                : UTC 2021-06-04 17:35:40
    Writing application         : mkvmerge v56.1.0 ('My Friend') 64-bit
    Writing library             : libebml v1.4.2 + libmatroska v1.6.4

    Video
    ID                          : 1
    Format                      : AVC
    Format/Info                 : Advanced Video Codec
    Format profile              : High@L4
    Format settings             : CABAC / 4 Ref Frames
    Format settings, CABAC      : Yes
    Format settings, Reference  : 4 frames
    Codec ID                    : V_MPEG4/ISO/AVC
    Duration                    : 1 h 1 min
    Bit rate mode               : Constant
    Bit rate                    : 8 216 kb/s
    Nominal bit rate            : 10 000 kb/s
    Width                       : 1 920 pixels
    Height                      : 1 080 pixels
    Display aspect ratio        : 16:9
    Frame rate mode             : Constant
    Frame rate                  : 23.976 (24000/1001) FPS
    Color space                 : YUV
    Chroma subsampling          : 4:2:0
    Bit depth                   : 8 bits
    Scan type                   : Progressive
    Bits/(Pixel*Frame)          : 0.165
    Stream size                 : 3.50 GiB (81%)
    Title                       : CinemaniaHDD
    Default                     : Yes
    Forced                      : No
    Color range                 : Limited
    Color primaries             : BT.709
    Transfer characteristics    : BT.709
    Matrix coefficients         : BT.709

    Audio #1
    ID                          : 2
    Format                      : AC-3
    Format/Info                 : Audio Coding 3
    Commercial name             : Dolby Digital
    Codec ID                    : A_AC3
    Duration                    : 1 h 1 min
    Bit rate mode               : Constant
    Bit rate                    : 640 kb/s
    Channel(s)                  : 6 channels
    Channel layout              : L R C LFE Ls Rs
    Sampling rate               : 48.0 kHz
    Frame rate                  : 31.250 FPS (1536 SPF)
    Compression mode            : Lossy
    Stream size                 : 279 MiB (6%)
    Title                       : Español latino [CinemaniaHDD]
    Language                    : Spanish
    Service kind                : Complete Main
    Default                     : Yes
    Forced                      : No

    Audio #2
    ID                          : 3
    Format                      : E-AC-3
    Format/Info                 : Enhanced AC-3
    Commercial name             : Dolby Digital Plus
    Codec ID                    : A_EAC3
    Duration                    : 1 h 1 min
    Bit rate mode               : Constant
    Bit rate                    : 640 kb/s
    Channel(s)                  : 6 channels
    Channel layout              : L R C LFE Ls Rs
    Sampling rate               : 48.0 kHz
    Frame rate                  : 31.250 FPS (1536 SPF)
    Compression mode            : Lossy
    Stream size                 : 279 MiB (6%)
    Title                       : Inglés [CinemaniaHDD]
    Language                    : English
    Service kind                : Complete Main
    Default                     : No
    Forced                      : No

    Audio #3
    ID                          : 4
    Format                      : E-AC-3
    Format/Info                 : Enhanced AC-3
    Commercial name             : Dolby Digital Plus
    Codec ID                    : A_EAC3
    Duration                    : 1 h 1 min
    Bit rate mode               : Constant
    Bit rate                    : 640 kb/s
    Channel(s)                  : 6 channels
    Channel layout              : L R C LFE Ls Rs
    Sampling rate               : 48.0 kHz
    Frame rate                  : 31.250 FPS (1536 SPF)
    Compression mode            : Lossy
    Stream size                 : 279 MiB (6%)
    Service kind                : Complete Main
    Default                     : No
    Forced                      : No

    Text #1
    ID                          : 5
    Format                      : UTF-8
    Codec ID                    : S_TEXT/UTF8
    Codec ID/Info               : UTF-8 Plain Text
    Duration                    : 45 min 11 s
    Bit rate                    : 1 b/s
    Count of elements           : 10
    Stream size                 : 500 Bytes (0%)
    Title                       : Forzados [CinemaniaHDD]
    Language                    : Spanish
    Default                     : Yes
    Forced                      : Yes

    Text #2
    ID                          : 6
    Format                      : UTF-8
    Codec ID                    : S_TEXT/UTF8
    Codec ID/Info               : UTF-8 Plain Text
    Duration                    : 1 h 0 min
    Bit rate                    : 36 b/s
    Count of elements           : 515
    Stream size                 : 16.1 KiB (0%)
    Title                       : Español latino [CinemaniaHDD]
    Language                    : Spanish
    Default                     : No
    Forced                      : No

    Menu
    00:00:00.000                : Amazon Original
    00:00:05.000                : Disclaimer
    00:00:19.000                : Scene 3
    00:02:57.000                : Scene 4
    00:05:26.000                : Scene 5
    00:10:53.000                : Title Sequence
    00:11:03.000                : Scene 7
    00:17:43.000                : Scene 8
    00:18:57.000                : Scene 9
    00:26:22.000                : Scene 10
    00:29:02.000                : Scene 11
    00:34:51.000                : Scene 12
    00:38:25.000                : Scene 13
    00:43:23.000                : Scene 14
    00:46:45.000                : Scene 15
    00:49:15.000                : Scene 16
    00:55:39.000                : Scene 17
    00:58:50.000                : Scene 18

     

  • Peso: 4.32 GiB c/u Aprox ---- 32.6 GiB in 8 Chapters.

Sinopsis

Un padre que nunca dejó de luchar contra las drogas. Un hijo que nunca dejó de consumirlas. Dos lados de la misma moneda. Victor es un policía que luchó toda su vida para contener el tráfico de cocaína. Su hijo es un adicto que se ha convertido en uno de los ladrones más buscados en Río de Janeiro. ¿El amor de un padre será suficiente para salvar la vida de su hijo?

Ficha técnica

  • Titulo original: DOM
  • Fecha de lanzamiento: 04-06-2021 (BR)
  • Género: Drama, Series

Video trailer de la película

Enlaces de descarga

Rip de Bluray

Descargar DOM (2021) Primera Temporada AMZN WEB-DL 1080p Latino




Aportes de DPeliculasHDmega la pass es:dpeliculashdmega.org Aportes de CinemaniaHD la pass es:cinemaniahdd.com
Guardado en : Drama , Series

Películas relacionadas

descargar DOM (2021) Primera Temporada AMZN WEB-DL 1080p Latino WEBDL 1080p gratis, DOM (2021) Primera Temporada AMZN WEB-DL 1080p Latino WEBDL mega 1 link, DOM (2021) Primera Temporada AMZN WEB-DL 1080p Latino WEBDL serie completa, descargar DOM (2021) Primera Temporada AMZN WEB-DL 1080p Latino WEBDL gratis en mega.

DOM (2021) Primera Temporada AMZN WEB-DL 1080p Latino pelicula full hd, DOM (2021) Primera Temporada AMZN WEB-DL 1080p Latino mega latino, DOM (2021) Primera Temporada AMZN WEB-DL 1080p Latino 4k latino, DOM (2021) Primera Temporada AMZN WEB-DL 1080p Latino pelicula completa, DOM (2021) Primera Temporada AMZN WEB-DL 1080p Latino descargar gratis, descargar DOM (2021) Primera Temporada AMZN WEB-DL 1080p Latino pelicula latino, DOM (2021) Primera Temporada AMZN WEB-DL 1080p Latino 1 link mega, DOM (2021) Primera Temporada AMZN WEB-DL 1080p Latino 1 link google drive, DOM (2021) Primera Temporada AMZN WEB-DL 1080p Latino hd 1080p latino.
Comentarios 0