×

¿Problemas para descargar con Mozilla, EDGE? Deshabilita la opción "Abrir vinculos en una pestaña nueva" tal como lo muestra ésta imagen.

Dolor y Gloria (2019) REMUX 1080p Español

777 vistas

Información de Dolor y Gloria (2019) REMUX 1080p Español

Datos de la película

  • Calidad: Full 1080p
  • Audio: Español DTS 5.1 BLURAY
  • Subtitulos: No
  • Resolución: 1920x1080p
  • Formato: MKV
  • Codec: H.264
  • Encoder: CinefiloCool
  • Mediainfo: Clic para Mostrar Datos Ver
  • Dolor Y Gloria (2019) REMUX 1080p Castellano v2-CMHDD.mkv
    Format                      : Matroska
    Format version              : Version 4
    File size                   : 22.4 GiB
    Duration                    : 1 h 53 min
    Overall bit rate mode       : Variable
    Overall bit rate            : 28.2 Mb/s
    Movie name                  : CinemaniaHDD.Net
    Encoded date                : UTC 2020-01-23 06:28:18
    Writing application         : mkvmerge v42.0.0 ('Overtime') 64-bit
    Writing library             : libebml v1.3.10 + libmatroska v1.5.2
    Attachments                 : CINEMANIAHD.png

    Video
    ID                          : 1
    Format                      : AVC
    Format/Info                 : Advanced Video Codec
    Format profile              : High@L4.1
    Format settings             : CABAC / 2 Ref Frames
    Format settings, CABAC      : Yes
    Format settings, ReFrames   : 2 frames
    Codec ID                    : V_MPEG4/ISO/AVC
    Duration                    : 1 h 53 min
    Bit rate mode               : Variable
    Bit rate                    : 24.8 Mb/s
    Width                       : 1 920 pixels
    Height                      : 1 080 pixels
    Display aspect ratio        : 16:9
    Frame rate mode             : Constant
    Frame rate                  : 23.976 (24000/1001) FPS
    Color space                 : YUV
    Chroma subsampling          : 4:2:0
    Bit depth                   : 8 bits
    Scan type                   : Progressive
    Bits/(Pixel*Frame)          : 0.499
    Stream size                 : 19.7 GiB (88%)
    Title                       : Full HD1080p [REMUX]
    Default                     : Yes
    Forced                      : Yes

    Audio #1
    ID                          : 2
    Format                      : DTS XLL
    Format/Info                 : Digital Theater Systems
    Commercial name             : DTS-HD Master Audio
    Codec ID                    : A_DTS
    Duration                    : 1 h 53 min
    Bit rate mode               : Variable
    Bit rate                    : 1 902 kb/s
    Channel(s)                  : 6 channels
    Channel layout              : C L R Ls Rs LFE
    Sampling rate               : 48.0 kHz
    Frame rate                  : 93.750 FPS (512 SPF)
    Bit depth                   : 24 bits
    Compression mode            : Lossless
    Stream size                 : 1.51 GiB (7%)
    Title                       : DTS-HD_5.1_Bluray_Cast
    Language                    : Spanish
    Default                     : Yes
    Forced                      : Yes

    Audio #2
    ID                          : 3
    Format                      : DTS
    Format/Info                 : Digital Theater Systems
    Codec ID                    : A_DTS
    Duration                    : 1 h 53 min
    Bit rate mode               : Constant
    Bit rate                    : 1 509 kb/s
    Channel(s)                  : 6 channels
    Channel layout              : C L R Ls Rs LFE
    Sampling rate               : 48.0 kHz
    Frame rate                  : 93.750 FPS (512 SPF)
    Bit depth                   : 24 bits
    Compression mode            : Lossy
    Stream size                 : 1.20 GiB (5%)
    Title                       : DTS_5.1_Bluray_Cast
    Language                    : Spanish
    Default                     : No
    Forced                      : No

    Menu
    00:00:00.000                : en:Chapter 01
    00:07:41.252                : en:Chapter 02
    00:13:01.405                : en:Chapter 03
    00:20:06.038                : en:Chapter 04
    00:30:35.875                : en:Chapter 05
    00:33:23.418                : en:Chapter 06
    00:42:03.103                : en:Chapter 07
    00:50:02.582                : en:Chapter 08
    00:58:34.219                : en:Chapter 09
    01:05:11.782                : en:Chapter 10
    01:09:55.441                : en:Chapter 11
    01:19:32.893                : en:Chapter 12
    01:24:26.186                : en:Chapter 13
    01:30:53.865                : en:Chapter 14
    01:36:09.180                : en:Chapter 15
    01:44:48.323                : en:Chapter 16
     

  • Peso: 22.4 GiB

Sinopsis

Descargar Dolor y Gloria (2019) REMUX 1080p Español. Salvador Mallo, un director de cine en su ocaso, vive varios reencuentros. Algunos de ellos físicos, otros recordados: su infancia en los años 60; el primer deseo, su primer amor adulto ya en el Madrid de los 80; la escritura como única terapia para olvidar lo inolvidable; el temprano descubrimiento del cine y el inconmensurable vacío ante la imposibilidad de seguir rodando; la creación, la dificultad de separarla de la propia vida, las pasiones que le dan sentido y esperanza. En la recuperación de su pasado, Salvador encuentra la necesidad urgente de narrarlo, y en esa necesidad encuentra también su salvación.

Actualizado con source BD USA y corregido desfase

Ficha técnica

Video trailer de la película

Enlaces de descarga

Rip de Bluray

Descargar Dolor y Gloria (2019) REMUX 1080p Español




Aportes de DPeliculasHDmega la pass es:dpeliculashdmega.org Aportes de CinemaniaHD la pass es:cinemaniahdd.com Aportes recientes:cinemaniahdd.net
Guardado en : Castellano , Drama , Remux

Películas relacionadas

descargar Dolor y Gloria (2019) REMUX 1080p Español Full 1080p 1080p gratis, Dolor y Gloria (2019) REMUX 1080p Español Full 1080p mega 1 link, Dolor y Gloria (2019) REMUX 1080p Español Full 1080p pelicula completa, descargar Dolor y Gloria (2019) REMUX 1080p Español Full 1080p gratis en mega.

Dolor y Gloria (2019) REMUX 1080p Español pelicula full hd, Dolor y Gloria (2019) REMUX 1080p Español mega latino, Dolor y Gloria (2019) REMUX 1080p Español 4k latino, Dolor y Gloria (2019) REMUX 1080p Español pelicula completa, Dolor y Gloria (2019) REMUX 1080p Español descargar gratis, descargar Dolor y Gloria (2019) REMUX 1080p Español pelicula latino, Dolor y Gloria (2019) REMUX 1080p Español 1 link mega, Dolor y Gloria (2019) REMUX 1080p Español 1 link google drive, Dolor y Gloria (2019) REMUX 1080p Español hd 1080p latino.
Comentarios 0