×

¿Problemas para descargar con Mozilla, EDGE? Deshabilita la opción "Abrir vinculos en una pestaña nueva" tal como lo muestra ésta imagen.

Dolor y Gloria (2019) 1080p Español

1.020 vistas

Información de Dolor y Gloria (2019) 1080p Español

Datos de la película

  • Calidad: 1080p
  • Audio: Español AC3 5.1 BLURAY
  • Subtitulos: No
  • Resolución: 1920x1036p
  • Formato: MKV
  • Codec: H.264
  • Encoder: CinefiloCool
  • Mediainfo: Clic para Mostrar Datos Ver
  • Dolor Y Gloria (2019) 1080p Castellano v2-CMHDD.mkv
    Format                      : Matroska
    Format version              : Version 4
    File size                   : 3.28 GiB
    Duration                    : 1 h 53 min
    Overall bit rate            : 4 139 kb/s
    Movie name                  : CinemaniaHDD.Net
    Encoded date                : UTC 2020-01-23 06:40:08
    Writing application         : mkvmerge v42.0.0 ('Overtime') 64-bit
    Writing library             : libebml v1.3.10 + libmatroska v1.5.2
    Attachments                 : CINEMANIAHD.png

    Video
    ID                          : 1
    Format                      : AVC
    Format/Info                 : Advanced Video Codec
    Format profile              : High@L4.1
    Format settings             : CABAC / 4 Ref Frames
    Format settings, CABAC      : Yes
    Format settings, ReFrames   : 4 frames
    Codec ID                    : V_MPEG4/ISO/AVC
    Duration                    : 1 h 53 min
    Bit rate                    : 3 500 kb/s
    Width                       : 1 920 pixels
    Height                      : 1 036 pixels
    Display aspect ratio        : 1.85:1
    Frame rate mode             : Constant
    Frame rate                  : 23.976 (24000/1001) FPS
    Color space                 : YUV
    Chroma subsampling          : 4:2:0
    Bit depth                   : 8 bits
    Scan type                   : Progressive
    Bits/(Pixel*Frame)          : 0.073
    Stream size                 : 2.77 GiB (84%)
    Title                       : HD1080p [Bluray]
    Writing library             : x264 core 157 r2935 545de2f
    Encoding settings           : cabac=1 / ref=4 / deblock=1:-1:-1 / analyse=0x3:0x133 / me=umh / subme=9 / psy=1 / psy_rd=1.00:0.15 / mixed_ref=1 / me_range=16 / chroma_me=1 / trellis=2 / 8x8dct=1 / cqm=0 / deadzone=21,11 / fast_pskip=1 / chroma_qp_offset=-3 / threads=32 / lookahead_threads=2 / sliced_threads=0 / nr=0 / decimate=1 / interlaced=0 / bluray_compat=0 / constrained_intra=0 / bframes=3 / b_pyramid=2 / b_adapt=2 / b_bias=0 / direct=3 / weightb=1 / open_gop=0 / weightp=2 / keyint=240 / keyint_min=24 / scenecut=40 / intra_refresh=0 / rc_lookahead=60 / rc=2pass / mbtree=1 / bitrate=3500 / ratetol=1.0 / qcomp=0.60 / qpmin=0 / qpmax=69 / qpstep=4 / cplxblur=20.0 / qblur=0.5 / vbv_maxrate=62500 / vbv_bufsize=78125 / nal_hrd=none / filler=0 / ip_ratio=1.40 / aq=1:1.00
    Default                     : Yes
    Forced                      : Yes
    Color range                 : Limited
    Color primaries             : BT.709
    Transfer characteristics    : BT.709
    Matrix coefficients         : BT.709

    Audio
    ID                          : 2
    Format                      : AC-3
    Format/Info                 : Audio Coding 3
    Commercial name             : Dolby Digital
    Codec ID                    : A_AC3
    Duration                    : 1 h 53 min
    Bit rate mode               : Constant
    Bit rate                    : 640 kb/s
    Channel(s)                  : 6 channels
    Channel layout              : L R C LFE Ls Rs
    Sampling rate               : 48.0 kHz
    Frame rate                  : 31.250 FPS (1536 SPF)
    Bit depth                   : 16 bits
    Compression mode            : Lossy
    Delay relative to video     : -5 ms
    Stream size                 : 520 MiB (15%)
    Title                       : AC3_5.1_Bluray_Cast
    Language                    : Spanish
    Service kind                : Complete Main
    Default                     : Yes
    Forced                      : Yes

    Menu
    00:00:00.000                : :Chapter 1
    00:07:41.336                : :Chapter 2
    00:13:01.406                : :Chapter 3
    00:20:06.122                : :Chapter 4
    00:30:35.917                : :Chapter 5
    00:33:23.502                : :Chapter 6
    00:42:03.104                : :Chapter 7
    00:50:02.583                : :Chapter 8
    00:58:34.302                : :Chapter 9
    01:05:11.783                : :Chapter 10
    01:09:55.525                : :Chapter 11
    01:19:32.977                : :Chapter 12
    01:24:26.270                : :Chapter 13
    01:30:53.949                : :Chapter 14
    01:36:09.264                : :Chapter 15
    01:44:48.324                : :Chapter 16

  • Peso: 3.28 GiB

Sinopsis

Descargar Dolor y Gloria (2019) 1080p Español. Salvador Mallo, un director de cine en su ocaso, vive varios reencuentros. Algunos de ellos físicos, otros recordados: su infancia en los años 60; el primer deseo, su primer amor adulto ya en el Madrid de los 80; la escritura como única terapia para olvidar lo inolvidable; el temprano descubrimiento del cine y el inconmensurable vacío ante la imposibilidad de seguir rodando; la creación, la dificultad de separarla de la propia vida, las pasiones que le dan sentido y esperanza. En la recuperación de su pasado, Salvador encuentra la necesidad urgente de narrarlo, y en esa necesidad encuentra también su salvación.

Actualizado con source BD USA y corregido Desfase

Ficha técnica

Video trailer de la película

Enlaces de descarga

Rip de Bluray

Descargar Dolor y Gloria (2019) 1080p Español




Aportes de DPeliculasHDmega la pass es:dpeliculashdmega.org Aportes de CinemaniaHD la pass es:cinemaniahdd.com
Guardado en : Castellano , Drama , HD 1080p

Películas relacionadas

descargar Dolor y Gloria (2019) 1080p Español 1080p 1080p gratis, Dolor y Gloria (2019) 1080p Español 1080p mega 1 link, Dolor y Gloria (2019) 1080p Español 1080p pelicula completa, descargar Dolor y Gloria (2019) 1080p Español 1080p gratis en mega.

Dolor y Gloria (2019) 1080p Español pelicula full hd, Dolor y Gloria (2019) 1080p Español mega latino, Dolor y Gloria (2019) 1080p Español 4k latino, Dolor y Gloria (2019) 1080p Español pelicula completa, Dolor y Gloria (2019) 1080p Español descargar gratis, descargar Dolor y Gloria (2019) 1080p Español pelicula latino, Dolor y Gloria (2019) 1080p Español 1 link mega, Dolor y Gloria (2019) 1080p Español 1 link google drive, Dolor y Gloria (2019) 1080p Español hd 1080p latino.
Comentarios 0