×

¿Problemas para descargar con Mozilla, EDGE? Deshabilita la opción "Abrir vinculos en una pestaña nueva" tal como lo muestra ésta imagen.

Dolor y Gloria (2019) Full HD 1080p Español

1.343 vistas

Información de Dolor y Gloria (2019) Full HD 1080p Español

Datos de la película

  • Calidad: Full 1080p
  • Audio: Español DTS 5.1 BLURAY
  • Subtitulos: No
  • Resolución: 1920x1080p
  • Formato: MKV
  • Codec: H.264
  • Encoder: CinefiloCool
  • Mediainfo: Clic para Mostrar Datos Ver
  • Dolor Y Gloria (2019) Full HD 1080p Castellano v2-CMHDD.mkv
    Format                      : Matroska
    Format version              : Version 4
    File size                   : 6.71 GiB
    Duration                    : 1 h 53 min
    Overall bit rate            : 8 462 kb/s
    Movie name                  : CinemaniaHDD.Net
    Encoded date                : UTC 2020-01-23 06:33:48
    Writing application         : mkvmerge v42.0.0 ('Overtime') 64-bit
    Writing library             : libebml v1.3.10 + libmatroska v1.5.2
    Attachments                 : CINEMANIAHD.png

    Video
    ID                          : 1
    Format                      : AVC
    Format/Info                 : Advanced Video Codec
    Format profile              : High@L4.1
    Format settings             : CABAC / 4 Ref Frames
    Format settings, CABAC      : Yes
    Format settings, ReFrames   : 4 frames
    Codec ID                    : V_MPEG4/ISO/AVC
    Duration                    : 1 h 53 min
    Bit rate                    : 6 951 kb/s
    Width                       : 1 920 pixels
    Height                      : 1 080 pixels
    Display aspect ratio        : 16:9
    Frame rate mode             : Constant
    Frame rate                  : 23.976 (24000/1001) FPS
    Color space                 : YUV
    Chroma subsampling          : 4:2:0
    Bit depth                   : 8 bits
    Scan type                   : Progressive
    Bits/(Pixel*Frame)          : 0.140
    Stream size                 : 5.51 GiB (82%)
    Title                       : Full HD1080p [Bluray]
    Writing library             : x264 core 157 r2935 545de2f
    Encoding settings           : cabac=1 / ref=4 / deblock=1:-1:-1 / analyse=0x3:0x133 / me=tesa / subme=11 / psy=1 / psy_rd=1.00:0.15 / mixed_ref=1 / me_range=24 / chroma_me=1 / trellis=2 / 8x8dct=1 / cqm=0 / deadzone=21,11 / fast_pskip=0 / chroma_qp_offset=-3 / threads=34 / lookahead_threads=8 / sliced_threads=0 / nr=0 / decimate=1 / interlaced=0 / bluray_compat=0 / constrained_intra=0 / bframes=16 / b_pyramid=2 / b_adapt=2 / b_bias=0 / direct=3 / weightb=1 / open_gop=0 / weightp=2 / keyint=240 / keyint_min=24 / scenecut=40 / intra_refresh=0 / rc_lookahead=60 / rc=crf / mbtree=1 / crf=20.0 / qcomp=0.60 / qpmin=0 / qpmax=69 / qpstep=4 / vbv_maxrate=62500 / vbv_bufsize=78125 / crf_max=0.0 / nal_hrd=none / filler=0 / ip_ratio=1.40 / aq=1:1.00
    Default                     : Yes
    Forced                      : Yes
    Color range                 : Limited
    Color primaries             : BT.709
    Transfer characteristics    : BT.709
    Matrix coefficients         : BT.709

    Audio
    ID                          : 2
    Format                      : DTS
    Format/Info                 : Digital Theater Systems
    Codec ID                    : A_DTS
    Duration                    : 1 h 53 min
    Bit rate mode               : Constant
    Bit rate                    : 1 509 kb/s
    Channel(s)                  : 6 channels
    Channel layout              : C L R Ls Rs LFE
    Sampling rate               : 48.0 kHz
    Frame rate                  : 93.750 FPS (512 SPF)
    Bit depth                   : 24 bits
    Compression mode            : Lossy
    Stream size                 : 1.20 GiB (18%)
    Title                       : DTS_5.1_Bluray_Cast
    Language                    : Spanish
    Default                     : Yes
    Forced                      : Yes

    Menu
    00:00:00.000                : :Chapter 1
    00:07:41.336                : :Chapter 2
    00:13:01.406                : :Chapter 3
    00:20:06.122                : :Chapter 4
    00:30:35.917                : :Chapter 5
    00:33:23.502                : :Chapter 6
    00:42:03.104                : :Chapter 7
    00:50:02.583                : :Chapter 8
    00:58:34.302                : :Chapter 9
    01:05:11.783                : :Chapter 10
    01:09:55.525                : :Chapter 11
    01:19:32.977                : :Chapter 12
    01:24:26.270                : :Chapter 13
    01:30:53.949                : :Chapter 14
    01:36:09.264                : :Chapter 15
    01:44:48.324                : :Chapter 16

  • Peso: 6.71 GiB

Sinopsis

Descargar Dolor y Gloria (2019) Full HD 1080p Español. Salvador Mallo, un director de cine en su ocaso, vive varios reencuentros. Algunos de ellos físicos, otros recordados: su infancia en los años 60; el primer deseo, su primer amor adulto ya en el Madrid de los 80; la escritura como única terapia para olvidar lo inolvidable; el temprano descubrimiento del cine y el inconmensurable vacío ante la imposibilidad de seguir rodando; la creación, la dificultad de separarla de la propia vida, las pasiones que le dan sentido y esperanza. En la recuperación de su pasado, Salvador encuentra la necesidad urgente de narrarlo, y en esa necesidad encuentra también su salvación.

Actualizado con Source BD USA y corregido desfase

Ficha técnica

Video trailer de la película

Enlaces de descarga

Rip de Bluray

Descargar Dolor y Gloria (2019) Full HD 1080p Español




Aportes de DPeliculasHDmega la pass es:dpeliculashdmega.org Aportes de CinemaniaHD la pass es:cinemaniahdd.com

Películas relacionadas

  • Stromboli (2022) NF WEB-DL 1080p Latino

    Stromboli (2022) NF WEB-DL 1080p Latino

    2022
    Stromboli (2022) NF WEB-DL 1080p Latino

    1h 26m 2022

    Descargar Stromboli (2022) NF WEB-DL 1080p Latino. Sara, una mujer que se ha divorciado recientemente,...

    Director: Michiel van Erp

    Género: Drama

    Actores: Tim McInnerny

  • Infiesto (2023) NF WEB-DL 1080p Castellano

    Infiesto (2023) NF WEB-DL 1080p Castellano

    2023
    Infiesto (2023) NF WEB-DL 1080p Castellano

    1h 36m 2023

    Descargar Infiesto (2023) NF WEB-DL 1080p Castellano. Mientras el coronavirus trastoca sus vidas, dos...

    Director: Patxi Amezcua

    Género: Crimen

    Actores: Luis Zahera

  • Espiritu Libre (2023) NF WEB-DL 1080p Latino

    Espiritu Libre (2023) NF WEB-DL 1080p Latino

    2023
    Espiritu Libre (2023) NF WEB-DL 1080p Latino

    1h 49m 2023

    Descargar Espiritu Libre (2023) NF WEB-DL 1080p Latino. La película se basa en la increíble historia...

    Director: Sarah Spillane

    Género: Aventura

    Actores: Vivien Turner

descargar Dolor y Gloria (2019) Full HD 1080p Español Full 1080p 1080p gratis, Dolor y Gloria (2019) Full HD 1080p Español Full 1080p mega 1 link, Dolor y Gloria (2019) Full HD 1080p Español Full 1080p pelicula completa, descargar Dolor y Gloria (2019) Full HD 1080p Español Full 1080p gratis en mega.

Dolor y Gloria (2019) Full HD 1080p Español pelicula full hd, Dolor y Gloria (2019) Full HD 1080p Español mega latino, Dolor y Gloria (2019) Full HD 1080p Español 4k latino, Dolor y Gloria (2019) Full HD 1080p Español pelicula completa, Dolor y Gloria (2019) Full HD 1080p Español descargar gratis, descargar Dolor y Gloria (2019) Full HD 1080p Español pelicula latino, Dolor y Gloria (2019) Full HD 1080p Español 1 link mega, Dolor y Gloria (2019) Full HD 1080p Español 1 link google drive, Dolor y Gloria (2019) Full HD 1080p Español hd 1080p latino.
Comentarios 0