×

¿Problemas para descargar con Mozilla, EDGE? Deshabilita la opción "Abrir vinculos en una pestaña nueva" tal como lo muestra ésta imagen.

Dodgeball A True Underdog Story (2004) REMUX 1080p Latino – CMHDD

401 vistas

Información de Dodgeball A True Underdog Story (2004) REMUX 1080p Latino – CMHDD

Datos de la película

  • Calidad: Full 1080p
  • Audio: Español Latino AC3 2.0 BLURAY - Ingles DTS 5.1 BLURAY
  • Subtitulos: Español Latino PGS
  • Resolución: 1920x1080p
  • Formato: MKV
  • Codec: H.264
  • Encoder: Dracarys
  • Mediainfo: Clic para Mostrar Datos Ver
  • Format                      : Matroska
    Format version              : Version 4
    File size                   : 17.9 GiB
    Duration                    : 1 h 32 min
    Overall bit rate mode       : Variable
    Overall bit rate            : 27.6 Mb/s
    Movie name                  : Dodgeball A True Underdog Story (2004) REMUX 1080p Latino - CMHDD
    Encoded date                : UTC 2022-01-22 22:16:19
    Writing application         : mkvmerge v17.0.0 ('Be Ur Friend') 64-bit
    Writing library             : libebml v1.3.5 + libmatroska v1.4.8

    Video
    ID                          : 1
    Format                      : MPEG Video
    Format version              : Version 2
    Format profile              : Main@High
    Format settings             : CustomMatrix / BVOP
    Format settings, BVOP       : Yes
    Format settings, Matrix     : Custom
    Format settings, GOP        : M=3, N=12
    Codec ID                    : V_MPEG2
    Codec ID/Info               : MPEG 1 or 2 Video
    Duration                    : 1 h 32 min
    Bit rate mode               : Variable
    Bit rate                    : 23.3 Mb/s
    Maximum bit rate            : 40.0 Mb/s
    Width                       : 1 920 pixels
    Height                      : 1 080 pixels
    Display aspect ratio        : 16:9
    Frame rate mode             : Constant
    Frame rate                  : 23.976 (24000/1001) FPS
    Color space                 : YUV
    Chroma subsampling          : 4:2:0
    Bit depth                   : 8 bits
    Scan type                   : Progressive
    Compression mode            : Lossy
    Bits/(Pixel*Frame)          : 0.469
    Time code of first frame    : 00:00:00:00
    Time code source            : Group of pictures header
    GOP, Open/Closed            : Open
    GOP, Open/Closed of first f : Closed
    Stream size                 : 15.1 GiB (84%)
    Default                     : Yes
    Forced                      : No

    Audio #1
    ID                          : 2
    Format                      : DTS XLL
    Format/Info                 : Digital Theater Systems
    Commercial name             : DTS-HD Master Audio
    Codec ID                    : A_DTS
    Duration                    : 1 h 32 min
    Bit rate mode               : Variable
    Bit rate                    : 4 152 kb/s
    Channel(s)                  : 6 channels
    Channel layout              : C L R Ls Rs LFE
    Sampling rate               : 48.0 kHz
    Frame rate                  : 93.750 FPS (512 SPF)
    Bit depth                   : 24 bits
    Compression mode            : Lossless
    Stream size                 : 2.68 GiB (15%)
    Language                    : English
    Default                     : No
    Forced                      : No

    Audio #2
    ID                          : 3
    Format                      : AC-3
    Format/Info                 : Audio Coding 3
    Commercial name             : Dolby Digital
    Format settings             : Dolby Surround
    Codec ID                    : A_AC3
    Duration                    : 1 h 32 min
    Bit rate mode               : Constant
    Bit rate                    : 192 kb/s
    Channel(s)                  : 2 channels
    Channel layout              : L R
    Sampling rate               : 48.0 kHz
    Frame rate                  : 31.250 FPS (1536 SPF)
    Compression mode            : Lossy
    Stream size                 : 127 MiB (1%)
    Language                    : Spanish
    Service kind                : Complete Main
    Default                     : Yes
    Forced                      : No

    Text #1
    ID                          : 4
    Format                      : VobSub
    Muxing mode                 : zlib
    Codec ID                    : S_VOBSUB
    Codec ID/Info               : Picture based subtitle format used on DVDs
    Duration                    : 1 h 32 min
    Bit rate                    : 3 551 b/s
    Count of elements           : 1407
    Stream size                 : 2.35 MiB (0%)
    Language                    : Spanish
    Default                     : No
    Forced                      : No

    Text #2
    ID                          : 5
    Format                      : VobSub
    Muxing mode                 : zlib
    Codec ID                    : S_VOBSUB
    Codec ID/Info               : Picture based subtitle format used on DVDs
    Duration                    : 1 h 27 min
    Bit rate                    : 51 b/s
    Count of elements           : 38
    Stream size                 : 32.5 KiB (0%)
    Language                    : Spanish
    Default                     : No
    Forced                      : No

    Menu
    00:00:00.000                : en:Chapter 1
    00:02:24.978                : en:Chapter 2
    00:05:13.688                : en:Chapter 3
    00:08:00.813                : en:Chapter 4
    00:13:25.346                : en:Chapter 5
    00:16:33.242                : en:Chapter 6
    00:18:22.059                : en:Chapter 7
    00:22:01.903                : en:Chapter 8
    00:26:27.043                : en:Chapter 9
    00:30:33.915                : en:Chapter 10
    00:34:26.731                : en:Chapter 11
    00:37:04.639                : en:Chapter 12
    00:39:34.455                : en:Chapter 13
    00:45:39.611                : en:Chapter 14
    00:54:08.328                : en:Chapter 15
    00:59:11.714                : en:Chapter 16
    01:00:28.583                : en:Chapter 17
    01:05:34.597                : en:Chapter 18
    01:09:48.058                : en:Chapter 19
    01:20:00.337                : en:Chapter 20
    01:27:31.579                : en:Chapter 21
    01:31:23.853                : en:Chapter 22

  • Peso: 17.9 GiB

Sinopsis

Peter LaFleur (Vince Vaughn), es el propietario del gimnasio Average Joe’s, el cual está por quebrar. La clientela del gimnasio es muy escasa, y está compuesta por Steve «el Pirata», un hombre que se cree pirata; Justin Redman, un chico escuálido que sueña con impresionar a una animadora que está a años luz de sus posibilidades; Gordon Pibb, un hombre obeso aficionado a los deportes más raros; Owen, un joven sin muchas luces; y Dwight Baumgarten, un engreído sabiondo que en realidad no tiene ni idea de nada. Al humilde gimnasio de Peter, le echa el ojo White Goodman (Ben Stiller), estrella del mundo de los deportes y egocéntrico propietario del Globo Gym, el resplandeciente templo del fitness.

Ficha técnica

Video trailer de la película

Enlaces de descarga

Rip de Bluray

Descargar Dodgeball A True Underdog Story (2004) REMUX 1080p Latino – CMHDD


Aportes de DPeliculasHDmega la pass es:dpeliculashdmega.org Aportes de CinemaniaHD la pass es:cinemaniahdd.com
Guardado en : Comedia

Películas relacionadas

descargar Dodgeball A True Underdog Story (2004) REMUX 1080p Latino – CMHDD Full 1080p 1080p gratis, Dodgeball A True Underdog Story (2004) REMUX 1080p Latino – CMHDD Full 1080p mega 1 link, Dodgeball A True Underdog Story (2004) REMUX 1080p Latino – CMHDD Full 1080p pelicula completa, descargar Dodgeball A True Underdog Story (2004) REMUX 1080p Latino – CMHDD Full 1080p gratis en mega.

Dodgeball A True Underdog Story (2004) REMUX 1080p Latino – CMHDD pelicula full hd, Dodgeball A True Underdog Story (2004) REMUX 1080p Latino – CMHDD mega latino, Dodgeball A True Underdog Story (2004) REMUX 1080p Latino – CMHDD 4k latino, Dodgeball A True Underdog Story (2004) REMUX 1080p Latino – CMHDD pelicula completa, Dodgeball A True Underdog Story (2004) REMUX 1080p Latino – CMHDD descargar gratis, descargar Dodgeball A True Underdog Story (2004) REMUX 1080p Latino – CMHDD pelicula latino, Dodgeball A True Underdog Story (2004) REMUX 1080p Latino – CMHDD 1 link mega, Dodgeball A True Underdog Story (2004) REMUX 1080p Latino – CMHDD 1 link google drive, Dodgeball A True Underdog Story (2004) REMUX 1080p Latino – CMHDD hd 1080p latino.
Comentarios 0