×

¿Problemas para descargar con Mozilla, EDGE? Deshabilita la opción "Abrir vinculos en una pestaña nueva" tal como lo muestra ésta imagen.

Doctor Zhivago (1965) REMUX 1080p Latino – CMHDD

293 vistas

Información de Doctor Zhivago (1965) REMUX 1080p Latino – CMHDD

Datos de la película

  • Calidad: Full 1080p
  • Audio: Español Latino AC3 2.0 BLURAY - Ingles DTS 5.1 BLURAY
  • Subtitulos: Español Latino SRT
  • Resolución: 1920x1080p
  • Formato: MKV
  • Codec: H.264
  • Encoder: Dracarys
  • Mediainfo: Clic para Mostrar Datos Ver
  • Format                      : Matroska
    Format version              : Version 4
    File size                   : 25.6 GiB
    Duration                    : 3 h 20 min
    Overall bit rate mode       : Variable
    Overall bit rate            : 18.3 Mb/s
    Movie name                  : Doctor Zhivago (1965) REMUX 1080p Latino - CMHDD
    Encoded date                : UTC 2020-06-29 23:28:07
    Writing application         : mkvmerge v46.0.0 ('No Deeper Escape') 64-bit
    Writing library             : libebml v1.3.10 + libmatroska v1.5.2

    Video
    ID                          : 1
    Format                      : AVC
    Format/Info                 : Advanced Video Codec
    Format profile              : High@L4.1
    Format settings             : CABAC / 4 Ref Frames
    Format settings, CABAC      : Yes
    Format settings, Reference  : 4 frames
    Format settings, GOP        : M=4, N=24
    Codec ID                    : V_MPEG4/ISO/AVC
    Duration                    : 3 h 20 min
    Bit rate mode               : Variable
    Bit rate                    : 14.0 Mb/s
    Maximum bit rate            : 30.0 Mb/s
    Width                       : 1 920 pixels
    Height                      : 1 080 pixels
    Display aspect ratio        : 16:9
    Frame rate mode             : Constant
    Frame rate                  : 23.976 (24000/1001) FPS
    Color space                 : YUV
    Chroma subsampling          : 4:2:0
    Bit depth                   : 8 bits
    Scan type                   : Progressive
    Bits/(Pixel*Frame)          : 0.282
    Stream size                 : 19.6 GiB (76%)
    Language                    : English
    Default                     : Yes
    Forced                      : No

    Audio #1
    ID                          : 2
    Format                      : AC-3
    Format/Info                 : Audio Coding 3
    Commercial name             : Dolby Digital
    Codec ID                    : A_AC3
    Duration                    : 3 h 20 min
    Bit rate mode               : Constant
    Bit rate                    : 192 kb/s
    Channel(s)                  : 2 channels
    Channel layout              : L R
    Sampling rate               : 48.0 kHz
    Frame rate                  : 31.250 FPS (1536 SPF)
    Compression mode            : Lossy
    Stream size                 : 275 MiB (1%)
    Language                    : Spanish
    Service kind                : Complete Main
    Default                     : Yes
    Forced                      : No

    Audio #2
    ID                          : 3
    Format                      : DTS XLL
    Format/Info                 : Digital Theater Systems
    Commercial name             : DTS-HD Master Audio
    Codec ID                    : A_DTS
    Duration                    : 3 h 20 min
    Bit rate mode               : Variable
    Bit rate                    : 3 924 kb/s
    Channel(s)                  : 6 channels
    Channel layout              : C L R Ls Rs LFE
    Sampling rate               : 48.0 kHz
    Frame rate                  : 93.750 FPS (512 SPF)
    Bit depth                   : 24 bits
    Compression mode            : Lossless
    Stream size                 : 5.48 GiB (21%)
    Language                    : English
    Default                     : No
    Forced                      : No

    Audio #3
    ID                          : 4
    Format                      : AC-3
    Format/Info                 : Audio Coding 3
    Commercial name             : Dolby Digital
    Codec ID                    : A_AC3
    Duration                    : 3 h 20 min
    Bit rate mode               : Constant
    Bit rate                    : 192 kb/s
    Channel(s)                  : 2 channels
    Channel layout              : L R
    Sampling rate               : 48.0 kHz
    Frame rate                  : 31.250 FPS (1536 SPF)
    Compression mode            : Lossy
    Stream size                 : 275 MiB (1%)
    Language                    : English
    Service kind                : Complete Main
    Default                     : No
    Forced                      : No

    Text #1
    ID                          : 5
    Format                      : UTF-8
    Codec ID                    : S_TEXT/UTF8
    Codec ID/Info               : UTF-8 Plain Text
    Duration                    : 3 h 19 min
    Bit rate                    : 31 b/s
    Count of elements           : 1499
    Stream size                 : 46.2 KiB (0%)
    Language                    : Spanish
    Default                     : No
    Forced                      : No

    Text #2
    ID                          : 6
    Format                      : PGS
    Muxing mode                 : zlib
    Codec ID                    : S_HDMV/PGS
    Codec ID/Info               : Picture based subtitle format used on BDs/HD-DVDs
    Duration                    : 3 h 19 min
    Bit rate                    : 18.2 kb/s
    Count of elements           : 2997
    Stream size                 : 26.0 MiB (0%)
    Language                    : Spanish
    Default                     : No
    Forced                      : No

    Menu
    00:00:00.000                : en:Overture
    00:04:25.265                : en:Credits
    00:07:15.435                : en:Yevgraf and Tonya
    00:13:26.388                : en:Laid to Rest
    00:16:38.455                : en:The Balalaika
    00:19:28.333                : en:Strangers on a Train
    00:21:42.050                : en:Lara and Pasha
    00:23:52.889                : en:Home Life: Yuri and Lara
    00:28:01.304                : en:The Demonstration
    00:29:59.506                : en:Dinner with Komarosvsky
    00:33:14.075                : en:Ended: Dissent and Innocence
    00:38:58.711                : en:Tonya Comes Home
    00:41:05.963                : en:Pasha and the Gun
    00:44:00.929                : en:"You'll Always Come Back"
    00:47:31.807                : en:Suicide Attempt
    00:53:27.162                : en:Yuri Sees Lara
    00:56:50.281                : en:Plain Speaking
    01:00:31.544                : en:Brute Force
    01:03:03.905                : en:The Christmas Party
    01:08:35.528                : en:Interwoven Destinies
    01:10:57.836                : en:Ringing Sorrow
    01:12:45.319                : en:War's Toll
    01:16:47.811                : en:Deserters Meet Replacements
    01:20:37.791                : en:"Are You a Nurse?"
    01:23:03.645                : en:No More Czars
    01:27:05.929                : en:Understood
    01:30:06.526                : en:Farewells
    01:32:49.939                : en:Full House
    01:35:13.290                : en:"The Stove's Out"
    01:39:09.860                : en:Pilfering Firewood
    01:41:30.793                : en:Brothers Zhivago
    01:44:49.408                : en:Boarding the Train
    01:47:40.996                : en:The Only Free Man
    01:49:50.208                : en:Disinfecting
    01:53:25.381                : en:Another Passenger
    01:56:52.213                : en:"Strelnikov!"
    01:58:41.531                : en:Intermission
    01:59:42.300                : en:Concatenation
    02:01:38.290                : en:Entr'Act
    02:03:21.811                : en:Through the Urals
    02:09:04.153                : en:With Strelnikov
    02:12:34.863                : en:Varykino
    02:15:06.473                : en:One of the People Too
    02:17:16.895                : en:No Going Back
    02:19:59.015                : en:Spring (Lara's Theme)
    02:24:56.854                : en:Reunited
    02:30:06.872                : en:Between Two Women
    02:32:55.749                : en:Conscripted
    02:36:21.371                : en:Soldiers to Schoolboys
    02:40:56.146                : en:Turning Back
    02:45:05.353                : en:Yuriatin... and Lara
    02:47:49.642                : en:Tonya's Letter
    02:53:30.733                : en:Kamarovsky's Help
    02:56:54.103                : en:Return to Varykino
    03:03:47.516                : en:Writing Again
    03:07:39.456                : en:Strelnikov's End
    03:09:42.245                : en:Final Farewell
    03:10:56.319                : en:A Mother's Duty
    03:14:20.357                : en:Yuri's Last Glimpse of Lara
    03:15:35.014                : en:Yevgraf's Last Glimpse of Lara
    03:18:18.761                : en:A Gift
    03:20:04.909                : en:Credits

  • Peso: 25.6 GiB

Sinopsis

Rusia, revolución bolchevique (1917). La guerra produce una convulsión general en un país dividido. En medio del conflicto, asistimos al drama íntimo de un hombre que lucha por sobrevivir. Este hombre es Zhivago, poeta y cirujano, marido y amante, cuya vida trastornada por la guerra afecta a las vidas de otros, incluida Tonya, su mujer, y Lara, la mujer de la que se enamora.

Ficha técnica

Video trailer de la película

Enlaces de descarga

Rip de Bluray

Descargar Doctor Zhivago (1965) REMUX 1080p Latino – CMHDD




Aportes de DPeliculasHDmega la pass es:dpeliculashdmega.org Aportes de CinemaniaHD la pass es:cinemaniahdd.com
Guardado en : Bélica , Drama , Reality , Romance

Películas relacionadas

descargar Doctor Zhivago (1965) REMUX 1080p Latino – CMHDD Full 1080p 1080p gratis, Doctor Zhivago (1965) REMUX 1080p Latino – CMHDD Full 1080p mega 1 link, Doctor Zhivago (1965) REMUX 1080p Latino – CMHDD Full 1080p pelicula completa, descargar Doctor Zhivago (1965) REMUX 1080p Latino – CMHDD Full 1080p gratis en mega.

Doctor Zhivago (1965) REMUX 1080p Latino – CMHDD pelicula full hd, Doctor Zhivago (1965) REMUX 1080p Latino – CMHDD mega latino, Doctor Zhivago (1965) REMUX 1080p Latino – CMHDD 4k latino, Doctor Zhivago (1965) REMUX 1080p Latino – CMHDD pelicula completa, Doctor Zhivago (1965) REMUX 1080p Latino – CMHDD descargar gratis, descargar Doctor Zhivago (1965) REMUX 1080p Latino – CMHDD pelicula latino, Doctor Zhivago (1965) REMUX 1080p Latino – CMHDD 1 link mega, Doctor Zhivago (1965) REMUX 1080p Latino – CMHDD 1 link google drive, Doctor Zhivago (1965) REMUX 1080p Latino – CMHDD hd 1080p latino.
Comentarios 0