Doctor Zhivago (1965) HD 1080p Latino – CMHDD

16 vistas
1 estrella2 estrellas3 estrellas4 estrellas5 estrellas (Ninguna valoración todavía)
Cargando…

Información de Doctor Zhivago (1965) HD 1080p Latino – CMHDD

Datos de la película

  • Calidad: 1080p
  • Audio: Español Latino AC3 2.0 BLURAY - Ingles AC3 5.1 BLURAY
  • Subtitulos: Español Latino SRT
  • Resolución: 1920x800p
  • Formato: MKV
  • Codec: H.264
  • Encoder: Dracarys
  • Mediainfo: Clic para Mostrar Datos Ver
  • Format                      : Matroska
    Format version              : Version 4
    File size                   : 6.08 GiB
    Duration                    : 3 h 20 min
    Overall bit rate            : 4 348 kb/s
    Movie name                  : Doctor Zhivago (1965) HD 1080p Latino - CMHDD
    Encoded date                : UTC 2020-06-29 23:35:21
    Writing application         : mkvmerge v46.0.0 ('No Deeper Escape') 64-bit
    Writing library             : libebml v1.3.10 + libmatroska v1.5.2

    Video
    ID                          : 1
    Format                      : AVC
    Format/Info                 : Advanced Video Codec
    Format profile              : High@L4.1
    Format settings             : CABAC / 5 Ref Frames
    Format settings, CABAC      : Yes
    Format settings, Reference  : 5 frames
    Codec ID                    : V_MPEG4/ISO/AVC
    Duration                    : 3 h 20 min
    Bit rate                    : 3 500 kb/s
    Width                       : 1 920 pixels
    Height                      : 800 pixels
    Display aspect ratio        : 2.40:1
    Frame rate mode             : Constant
    Frame rate                  : 23.976 (24000/1001) FPS
    Color space                 : YUV
    Chroma subsampling          : 4:2:0
    Bit depth                   : 8 bits
    Scan type                   : Progressive
    Bits/(Pixel*Frame)          : 0.095
    Stream size                 : 4.91 GiB (81%)
    Writing library             : x264 core 157 r2935 545de2f
    Encoding settings           : cabac=1 / ref=5 / deblock=1:0:0 / analyse=0x3:0x113 / me=hex / subme=8 / psy=1 / psy_rd=1.00:0.00 / mixed_ref=1 / me_range=16 / chroma_me=1 / trellis=2 / 8x8dct=1 / cqm=0 / deadzone=21,11 / fast_pskip=1 / chroma_qp_offset=-2 / threads=24 / lookahead_threads=4 / sliced_threads=0 / nr=0 / decimate=1 / interlaced=0 / bluray_compat=0 / constrained_intra=0 / bframes=3 / b_pyramid=2 / b_adapt=1 / b_bias=0 / direct=3 / weightb=1 / open_gop=0 / weightp=2 / keyint=240 / keyint_min=24 / scenecut=40 / intra_refresh=0 / rc_lookahead=50 / rc=abr / mbtree=1 / bitrate=3500 / ratetol=1.0 / qcomp=0.60 / qpmin=0 / qpmax=69 / qpstep=4 / vbv_maxrate=62500 / vbv_bufsize=78125 / nal_hrd=none / filler=0 / ip_ratio=1.40 / aq=1:1.00
    Default                     : Yes
    Forced                      : No
    Color range                 : Limited
    Color primaries             : BT.709
    Transfer characteristics    : BT.709
    Matrix coefficients         : BT.709

    Audio #1
    ID                          : 2
    Format                      : AC-3
    Format/Info                 : Audio Coding 3
    Commercial name             : Dolby Digital
    Codec ID                    : A_AC3
    Duration                    : 3 h 20 min
    Bit rate mode               : Constant
    Bit rate                    : 192 kb/s
    Channel(s)                  : 2 channels
    Channel layout              : L R
    Sampling rate               : 48.0 kHz
    Frame rate                  : 31.250 FPS (1536 SPF)
    Compression mode            : Lossy
    Delay relative to video     : -5 ms
    Stream size                 : 275 MiB (4%)
    Language                    : Spanish
    Service kind                : Complete Main
    Default                     : Yes
    Forced                      : No

    Audio #2
    ID                          : 3
    Format                      : AC-3
    Format/Info                 : Audio Coding 3
    Commercial name             : Dolby Digital
    Codec ID                    : A_AC3
    Duration                    : 3 h 20 min
    Bit rate mode               : Constant
    Bit rate                    : 640 kb/s
    Channel(s)                  : 6 channels
    Channel layout              : L R C LFE Ls Rs
    Sampling rate               : 48.0 kHz
    Frame rate                  : 31.250 FPS (1536 SPF)
    Compression mode            : Lossy
    Delay relative to video     : -5 ms
    Stream size                 : 916 MiB (15%)
    Language                    : English
    Service kind                : Complete Main
    Default                     : No
    Forced                      : No

    Text
    ID                          : 4
    Format                      : UTF-8
    Codec ID                    : S_TEXT/UTF8
    Codec ID/Info               : UTF-8 Plain Text
    Duration                    : 3 h 19 min
    Bit rate                    : 31 b/s
    Count of elements           : 1499
    Stream size                 : 46.2 KiB (0%)
    Language                    : Spanish
    Default                     : No
    Forced                      : No

    Menu
    00:00:00.000                : :Overture
    00:04:25.265                : :Credits
    00:07:15.435                : :Yevgraf and Tonya
    00:13:26.389                : :Laid to Rest
    00:16:38.456                : :The Balalaika
    00:19:28.334                : :Strangers on a Train
    00:21:42.051                : :Lara and Pasha
    00:23:52.890                : :Home Life: Yuri and Lara
    00:28:01.305                : :The Demonstration
    00:29:59.506                : :Dinner with Komarosvsky
    00:33:14.075                : :Ended: Dissent and Innocence
    00:38:58.711                : :Tonya Comes Home
    00:41:05.964                : :Pasha and the Gun
    00:44:00.930                : :"You'll Always Come Back"
    00:47:31.807                : :Suicide Attempt
    00:53:27.162                : :Yuri Sees Lara
    00:56:50.282                : :Plain Speaking
    01:00:31.545                : :Brute Force
    01:03:03.905                : :The Christmas Party
    01:08:35.528                : :Interwoven Destinies
    01:10:57.837                : :Ringing Sorrow
    01:12:45.319                : :War's Toll
    01:16:47.812                : :Deserters Meet Replacements
    01:20:37.791                : :"Are You a Nurse?"
    01:23:03.645                : :No More Czars
    01:27:05.929                : :Understood
    01:30:06.526                : :Farewells
    01:32:49.939                : :Full House
    01:35:13.291                : :"The Stove's Out"
    01:39:09.861                : :Pilfering Firewood
    01:41:30.793                : :Brothers Zhivago
    01:44:49.408                : :Boarding the Train
    01:47:40.996                : :The Only Free Man
    01:49:50.209                : :Disinfecting
    01:53:25.382                : :Another Passenger
    01:56:52.214                : :"Strelnikov!"
    01:58:41.531                : :Intermission
    01:59:42.300                : :Concatenation
    02:01:38.291                : :Entr'Act
    02:03:21.811                : :Through the Urals
    02:09:04.153                : :With Strelnikov
    02:12:34.864                : :Varykino
    02:15:06.473                : :One of the People Too
    02:17:16.895                : :No Going Back
    02:19:59.016                : :Spring (Lara's Theme)
    02:24:56.855                : :Reunited
    02:30:06.873                : :Between Two Women
    02:32:55.750                : :Conscripted
    02:36:21.372                : :Soldiers to Schoolboys
    02:40:56.147                : :Turning Back
    02:45:05.354                : :Yuriatin... and Lara
    02:47:49.643                : :Tonya's Letter
    02:53:30.734                : :Kamarovsky's Help
    02:56:54.104                : :Return to Varykino
    03:03:47.517                : :Writing Again
    03:07:39.457                : :Strelnikov's End
    03:09:42.246                : :Final Farewell
    03:10:56.320                : :A Mother's Duty
    03:14:20.357                : :Yuri's Last Glimpse of Lara
    03:15:35.015                : :Yevgraf's Last Glimpse of Lara
    03:18:18.762                : :A Gift

  • Peso: 6.08 GiB

Sinopsis

Rusia, revolución bolchevique (1917). La guerra produce una convulsión general en un país dividido. En medio del conflicto, asistimos al drama íntimo de un hombre que lucha por sobrevivir. Este hombre es Zhivago, poeta y cirujano, marido y amante, cuya vida trastornada por la guerra afecta a las vidas de otros, incluida Tonya, su mujer, y Lara, la mujer de la que se enamora.

Ficha técnica

Video trailer de la película

Enlaces de descarga

Rip de Bluray

Descargar Doctor Zhivago (1965) HD 1080p Latino – CMHDD




Aportes de DPeliculasHDmega la pass es:dpeliculashdmega.org Aportes de CinemaniaHD la pass es:cinemaniahdd.com
Guardado en : Bélica , Drama , HD 1080p , Romance

Películas relacionadas

  • Días De Trueno (1990) 4K UHD HDR Latino

    Días De Trueno (1990) 4K UHD HDR Latino

    1990
    Días De Trueno (1990) 4K UHD HDR Latino

    0.0 1h 47m 1990

    Descargar Días De Trueno (1990) 4K UHD HDR Latino. Cole Trickle es un joven temerario que busca en la...

    Director: Tony Scott

    Género: 4K HDR

    Actores: Tom Cruise

  • Días De Trueno (1990) 1080p Latino

    Días De Trueno (1990) 1080p Latino

    1990
    Días De Trueno (1990) 1080p Latino

    0.0 1h 47m 1990

    Descargar Días De Trueno (1990) 1080p Latino. Cole Trickle es un joven temerario que busca en la emoción...

    Director: Tony Scott

    Género: Acción

    Actores: Tom Cruise

  • Días De Trueno (1990) Full HD 1080p Latino

    Días De Trueno (1990) Full HD 1080p Latino

    1990
    Días De Trueno (1990) Full HD 1080p Latino

    0.0 1h 47m 1990

    Descargar Días De Trueno (1990) Full HD 1080p Latino. Cole Trickle es un joven temerario que busca en...

    Director: Tony Scott

    Género: Acción

    Actores: Tom Cruise

  • Días De Trueno (1990) REMUX 1080p Latino

    Días De Trueno (1990) REMUX 1080p Latino

    1990
    Días De Trueno (1990) REMUX 1080p Latino

    0.0 1h 47m 1990

    Descargar Días De Trueno (1990) REMUX 1080p Latino. Cole Trickle es un joven temerario que busca en...

    Director: Tony Scott

    Género: Acción

    Actores: Tom Cruise

  • Trolls (2016) 1080p Latino

    Trolls (2016) 1080p Latino

    2016
    Trolls (2016) 1080p Latino

    4.2 0h 0m 2016

    Descargar Trolls (2016) 1080p Latino. Adorable y amable, a los trolls les encanta jugar. Pero un día,...

    Director: Walt Dohrn

    Género: Animación

    Actores: Zooey Deschanel

Comentarios 0