×

¿Problemas para descargar con Mozilla, EDGE? Deshabilita la opción "Abrir vinculos en una pestaña nueva" tal como lo muestra ésta imagen.

Doctor Who (2024) Temporada 1 WEB-DL 1080p Latino

106 vistas

Información de Doctor Who (2024) Temporada 1 WEB-DL 1080p Latino

Datos de la película

  • Calidad: WEBDL
  • Audio: Español Latino AC3 5.1 WEB-DL - Ingles AC3 5.1 WEB-DL
  • Subtitulos: Español Latino SRT- FORZADOS SRT
  • Resolución: 1920x1080p
  • Formato: MKV
  • Codec: H.264
  • Encoder: Melkor
  • Mediainfo: Clic para Mostrar Datos Ver
  • Doctor Who S01E01 (2024) WEB 1080p Latino.mkv
    Format                      : Matroska
    Format version              : Version 4
    File size                   : 2.77 GiB
    Duration                    : 55 min 20 s
    Overall bit rate mode       : Variable
    Overall bit rate            : 7 161 kb/s
    Movie name                  : Doctor Who (2024) S01E01 - The Church on Ruby Road CinemaniaHDD.Net
    Encoded date                : UTC 2024-05-11 07:06:14
    Writing application         : mkvmerge v56.1.0 ('My Friend') 64-bit
    Writing library             : libebml v1.4.2 + libmatroska v1.6.4
    Attachments                 : CINEMANIAHD.png
    Site                        : CinemaniaHDD.Net
    Uploader                    : Melkor

    Video
    ID                          : 1
    Format                      : AVC
    Format/Info                 : Advanced Video Codec
    Format profile              : High@L4
    Format settings             : CABAC / 4 Ref Frames
    Format settings, CABAC      : Yes
    Format settings, Reference  : 4 frames
    Codec ID                    : V_MPEG4/ISO/AVC
    Duration                    : 55 min 20 s
    Bit rate mode               : Variable
    Bit rate                    : 6 647 kb/s
    Maximum bit rate            : 12.7 Mb/s
    Width                       : 1 920 pixels
    Height                      : 1 080 pixels
    Display aspect ratio        : 16:9
    Frame rate mode             : Constant
    Frame rate                  : 25.000 FPS
    Color space                 : YUV
    Chroma subsampling          : 4:2:0
    Bit depth                   : 8 bits
    Scan type                   : Progressive
    Bits/(Pixel*Frame)          : 0.128
    Stream size                 : 2.57 GiB (93%)
    Title                       : WEB HD1080p [CinemaniaHDD]
    Default                     : Yes
    Forced                      : Yes
    Color range                 : Limited
    Color primaries             : BT.709
    Transfer characteristics    : BT.709
    Matrix coefficients         : BT.709

    Audio #1
    ID                          : 2
    Format                      : E-AC-3
    Format/Info                 : Enhanced AC-3
    Commercial name             : Dolby Digital Plus
    Codec ID                    : A_EAC3
    Duration                    : 55 min 20 s
    Bit rate mode               : Constant
    Bit rate                    : 256 kb/s
    Channel(s)                  : 6 channels
    Channel layout              : L R C LFE Ls Rs
    Sampling rate               : 48.0 kHz
    Frame rate                  : 31.250 FPS (1536 SPF)
    Compression mode            : Lossy
    Stream size                 : 101 MiB (4%)
    Title                       : Español Latino [CinemaniaHDD]
    Language                    : Spanish
    Service kind                : Complete Main
    Default                     : Yes
    Forced                      : Yes

    Audio #2
    ID                          : 3
    Format                      : E-AC-3
    Format/Info                 : Enhanced AC-3
    Commercial name             : Dolby Digital Plus
    Codec ID                    : A_EAC3
    Duration                    : 55 min 20 s
    Bit rate mode               : Constant
    Bit rate                    : 256 kb/s
    Channel(s)                  : 6 channels
    Channel layout              : L R C LFE Ls Rs
    Sampling rate               : 48.0 kHz
    Frame rate                  : 31.250 FPS (1536 SPF)
    Compression mode            : Lossy
    Stream size                 : 101 MiB (4%)
    Title                       : Ingles [CinemaniaHDD]
    Language                    : English
    Service kind                : Complete Main
    Default                     : No
    Forced                      : No

    Text #1
    ID                          : 4
    Format                      : UTF-8
    Codec ID                    : S_TEXT/UTF8
    Codec ID/Info               : UTF-8 Plain Text
    Duration                    : 52 min 42 s
    Bit rate                    : 5 b/s
    Count of elements           : 53
    Stream size                 : 2.24 KiB (0%)
    Title                       : Forzados-SRT [CinemaniaHDD]
    Language                    : Spanish
    Default                     : Yes
    Forced                      : Yes

    Text #2
    ID                          : 5
    Format                      : UTF-8
    Codec ID                    : S_TEXT/UTF8
    Codec ID/Info               : UTF-8 Plain Text
    Duration                    : 55 min 4 s
    Bit rate                    : 61 b/s
    Count of elements           : 693
    Stream size                 : 25.0 KiB (0%)
    Title                       : Español-SRT [CinemaniaHDD]
    Language                    : Spanish
    Default                     : No
    Forced                      : No

    Menu
    00:54:28.400                : Credits

  • Peso: 2.4 GiB -- 7 Chapters Added + 1 Special

Sinopsis

Descargar Doctor Who (2024) Temporada 1 WEB-DL 1080p Latino. El Doctor y su compañera Ruby Sunday viajan a través del tiempo y el espacio, viviendo aventuras desde la época de la Regencia en Inglaterra hasta mundos futuros asolados por la guerra. A través de sus aventuras en la Tardis… una nave que viaja por el tiempo con forma de cabina telefónica de la policía, encuentran amigos increíbles y peligrosos enemigos, incluido un aterrador coco y el enemigo más poderoso del Doctor hasta la fecha.

Nota: Esta Nueva Serie/Temporada presenta a Ncuti Gatwa como la Decimoquinta Encarnacion del Doctor en de hecho la continuacion directa de la serie moderna de 2005, siendo entonces correcto mecionar que es la Temporada No. 14, sin embargo la serie se menciona en el material promocional y de marketing como serie nueva en su «Temporada uno» luego de los cambios de producción y la adquisición de Doctor Who de los derechos de transmisión internacional por parte de Disney+ asi que en adicion y por practicidad seguiremos la misma idea mencionadola como Serie 2024, Temporada 1.

7 Capítulos Agregados
& Special «The Church on Ruby Road «

Ficha técnica

Video trailer de la película

Enlaces de descarga

Rip de Bluray

Descargar Doctor Who (2024) Temporada 1 WEB-DL 1080p Latino




Aportes de DPeliculasHDmega la pass es:dpeliculashdmega.org Aportes de CinemaniaHD la pass es:cinemaniahdd.com Aportes recientes:cinemaniahdd.net

Películas relacionadas

descargar Doctor Who (2024) Temporada 1 WEB-DL 1080p Latino WEBDL 1080p gratis, Doctor Who (2024) Temporada 1 WEB-DL 1080p Latino WEBDL mega 1 link, Doctor Who (2024) Temporada 1 WEB-DL 1080p Latino WEBDL serie completa, descargar Doctor Who (2024) Temporada 1 WEB-DL 1080p Latino WEBDL gratis en mega.

Doctor Who (2024) Temporada 1 WEB-DL 1080p Latino pelicula full hd, Doctor Who (2024) Temporada 1 WEB-DL 1080p Latino mega latino, Doctor Who (2024) Temporada 1 WEB-DL 1080p Latino 4k latino, Doctor Who (2024) Temporada 1 WEB-DL 1080p Latino pelicula completa, Doctor Who (2024) Temporada 1 WEB-DL 1080p Latino descargar gratis, descargar Doctor Who (2024) Temporada 1 WEB-DL 1080p Latino pelicula latino, Doctor Who (2024) Temporada 1 WEB-DL 1080p Latino 1 link mega, Doctor Who (2024) Temporada 1 WEB-DL 1080p Latino 1 link google drive, Doctor Who (2024) Temporada 1 WEB-DL 1080p Latino hd 1080p latino.
Comentarios 0