×

¿Problemas para descargar con Mozilla, EDGE? Deshabilita la opción "Abrir vinculos en una pestaña nueva" tal como lo muestra ésta imagen.

Doctor sueño (2019) AMZN Web-DL 1080p Latino

1.589 vistas

Información de Doctor sueño (2019) AMZN Web-DL 1080p Latino

Datos de la película

  • Calidad: WEBDL
  • Audio: Se especifica abajo de la Sinopsis
  • Subtitulos: Español Latino SRT- FORZADOS SRT
  • Resolución: 1920x1040p
  • Formato: MKV
  • Codec: H.264
  • Encoder: CinefiloCool
  • Mediainfo: Clic para Mostrar Datos Ver
  • Doctor Sleep (2019) AMZN Web-DL 1080p Latino-CMHDD.mkv
    Format                      : Matroska
    Format version              : Version 4
    File size                   : 7.90 GiB
    Duration                    : 2 h 31 min
    Overall bit rate            : 7 445 kb/s
    Movie name                  : CinemaniaHDD.Net
    Encoded date                : UTC 2020-01-21 18:02:19
    Writing application         : mkvmerge v42.0.0 ('Overtime') 64-bit
    Writing library             : libebml v1.3.10 + libmatroska v1.5.2
    Attachments                 : CINEMANIAHD.png

    Video
    ID                          : 1
    Format                      : AVC
    Format/Info                 : Advanced Video Codec
    Format profile              : High@L4
    Format settings             : CABAC / 4 Ref Frames
    Format settings, CABAC      : Yes
    Format settings, ReFrames   : 4 frames
    Codec ID                    : V_MPEG4/ISO/AVC
    Duration                    : 2 h 31 min
    Bit rate mode               : Constant
    Bit rate                    : 6 547 kb/s
    Nominal bit rate            : 10 000 kb/s
    Width                       : 1 920 pixels
    Height                      : 1 040 pixels
    Display aspect ratio        : 1.85:1
    Frame rate mode             : Constant
    Frame rate                  : 23.976 (24000/1001) FPS
    Color space                 : YUV
    Chroma subsampling          : 4:2:0
    Bit depth                   : 8 bits
    Scan type                   : Progressive
    Bits/(Pixel*Frame)          : 0.137
    Stream size                 : 6.95 GiB (88%)
    Title                       : HD1080p [Web]
    Default                     : Yes
    Forced                      : Yes
    Color range                 : Limited
    Color primaries             : BT.709
    Transfer characteristics    : BT.709
    Matrix coefficients         : BT.709

    Audio #1
    ID                          : 2
    Format                      : AC-3
    Format/Info                 : Audio Coding 3
    Commercial name             : Dolby Digital
    Codec ID                    : A_AC3
    Duration                    : 2 h 31 min
    Bit rate mode               : Constant
    Bit rate                    : 256 kb/s
    Channel(s)                  : 2 channels
    Channel layout              : L R
    Sampling rate               : 48.0 kHz
    Frame rate                  : 31.250 FPS (1536 SPF)
    Bit depth                   : 16 bits
    Compression mode            : Lossy
    Stream size                 : 278 MiB (3%)
    Title                       : AC3_2.0_Web_Esp
    Language                    : Spanish
    Service kind                : Complete Main
    Default                     : Yes
    Forced                      : Yes

    Audio #2
    ID                          : 3
    Format                      : AC-3
    Format/Info                 : Audio Coding 3
    Commercial name             : Dolby Digital
    Codec ID                    : A_AC3
    Duration                    : 2 h 31 min
    Bit rate mode               : Constant
    Bit rate                    : 640 kb/s
    Channel(s)                  : 6 channels
    Channel layout              : L R C LFE Ls Rs
    Sampling rate               : 48.0 kHz
    Frame rate                  : 31.250 FPS (1536 SPF)
    Bit depth                   : 16 bits
    Compression mode            : Lossy
    Stream size                 : 696 MiB (9%)
    Title                       : AC3_5.1_Web_Eng
    Language                    : English
    Service kind                : Complete Main
    Default                     : No
    Forced                      : No

    Text #1
    ID                          : 4
    Format                      : UTF-8
    Codec ID                    : S_TEXT/UTF8
    Codec ID/Info               : UTF-8 Plain Text
    Duration                    : 1 h 42 min
    Bit rate                    : 0 b/s
    Count of elements           : 14
    Stream size                 : 408 Bytes (0%)
    Title                       : Sub_Forzados
    Language                    : Spanish
    Default                     : Yes
    Forced                      : Yes

    Text #2
    ID                          : 5
    Format                      : UTF-8
    Codec ID                    : S_TEXT/UTF8
    Codec ID/Info               : UTF-8 Plain Text
    Duration                    : 2 h 31 min
    Bit rate                    : 35 b/s
    Count of elements           : 1620
    Stream size                 : 39.1 KiB (0%)
    Title                       : Sub_Esp
    Language                    : Spanish
    Default                     : No
    Forced                      : No

    Text #3
    ID                          : 6
    Format                      : UTF-8
    Codec ID                    : S_TEXT/UTF8
    Codec ID/Info               : UTF-8 Plain Text
    Duration                    : 2 h 25 min
    Bit rate                    : 37 b/s
    Count of elements           : 1693
    Stream size                 : 39.7 KiB (0%)
    Title                       : Sub_Eng
    Language                    : English
    Default                     : No
    Forced                      : No

    Menu
    00:00:00.000                : en:1
    00:10:34.561                : en:2
    00:19:42.609                : en:3
    00:29:21.603                : en:4
    00:39:50.189                : en:5
    00:49:45.575                : en:6
    00:58:22.966                : en:7
    01:05:59.004                : en:8
    01:10:59.011                : en:9
    01:20:33.752                : en:10
    01:27:05.267                : en:11
    01:35:11.711                : en:12
    01:44:00.155                : en:13
    01:52:50.977                : en:14
    02:01:20.987                : en:15
    02:07:59.760                : en:16
    02:17:25.408                : en:17
    02:23:04.955                : en:18
    02:26:20.358                : en:19

  • Peso: 7.90 GiB

Sinopsis

Descargar Doctor sueño (2019) AMZN Web-DL 1080p Latino. Secuela del film de culto «El resplandor» (1980) dirigido por Stanley Kubrick y también basado en una famosa novela de Stephen King. La historia transcurre algunos años después de los acontecimientos de «The Shining», y sigue a Danny Torrance (Ewan McGregor), traumatizado y con problemas de ira y alcoholismo que hacen eco de los problemas de su padre Jack, que cuando sus habilidades psíquicas resurgen, se contacta con una niña de nombre Abra Stone, a quien debe rescatar de un grupo de viajeros que se alimentan de los niños que poseen el don de «el resplandor».

Audio Español Latino AC3 2.0 Itunes – Ingles AC3 5.1 Amazon

Ficha técnica

Video trailer de la película

Enlaces de descarga

Rip de Bluray

Descargar Doctor sueño (2019) AMZN Web-DL 1080p Latino




Aportes de DPeliculasHDmega la pass es:dpeliculashdmega.org Aportes de CinemaniaHD la pass es:cinemaniahdd.com
Guardado en : Drama , Fantasía , Terror

Películas relacionadas

  • Paradise Highway (2022) HD 1080p Latino

    Paradise Highway (2022) HD 1080p Latino

    2022
    Paradise Highway (2022) HD 1080p Latino

    1h 55m 2022

    Descargar Paradise Highway (2022) HD 1080p Latino. Un camionero se ha visto obligado a pasar de contrabando...

    Director: Anna Gutto

    Género: Crimen

    Actores: Xavier Scott Evans

  • Paradise Highway (2022) PLACEBO Full HD 1080p Latino

    Paradise Highway (2022) PLACEBO Full HD 1080p Latino

    2022
    Paradise Highway (2022) PLACEBO Full HD 1080p Latino

    1h 55m 2022

    Descargar Paradise Highway (2022) PLACEBO Full HD 1080p Latino. Un camionero se ha visto obligado a pasar...

    Director: Anna Gutto

    Género: Crimen

    Actores: Xavier Scott Evans

  • Paradise Highway (2022) REMUX 1080p Latino

    Paradise Highway (2022) REMUX 1080p Latino

    2022
    Paradise Highway (2022) REMUX 1080p Latino

    1h 55m 2022

    Descargar Paradise Highway (2022) REMUX 1080p Latino. Un camionero se ha visto obligado a pasar de contrabando...

    Director: Anna Gutto

    Género: Crimen

    Actores: Xavier Scott Evans

  • M3GAN (2023) AMZN WEB-DL 4K UHD HDR Latino

    M3GAN (2023) AMZN WEB-DL 4K UHD HDR Latino

    2022
    M3GAN (2023) AMZN WEB-DL 4K UHD HDR Latino

    1h 42m 2022

    Descargar M3GAN (2023) AMZN WEB-DL 4K UHD HDR Latino. Cuando Gemma se convierte en la cuidadora de su...

    Director: Stephen W. Moore

    Género: 4K HDR

    Actores: Violet McGraw

descargar Doctor sueño (2019) AMZN Web-DL 1080p Latino WEBDL 1080p gratis, Doctor sueño (2019) AMZN Web-DL 1080p Latino WEBDL mega 1 link, Doctor sueño (2019) AMZN Web-DL 1080p Latino WEBDL pelicula completa, descargar Doctor sueño (2019) AMZN Web-DL 1080p Latino WEBDL gratis en mega.

Doctor sueño (2019) AMZN Web-DL 1080p Latino pelicula full hd, Doctor sueño (2019) AMZN Web-DL 1080p Latino mega latino, Doctor sueño (2019) AMZN Web-DL 1080p Latino 4k latino, Doctor sueño (2019) AMZN Web-DL 1080p Latino pelicula completa, Doctor sueño (2019) AMZN Web-DL 1080p Latino descargar gratis, descargar Doctor sueño (2019) AMZN Web-DL 1080p Latino pelicula latino, Doctor sueño (2019) AMZN Web-DL 1080p Latino 1 link mega, Doctor sueño (2019) AMZN Web-DL 1080p Latino 1 link google drive, Doctor sueño (2019) AMZN Web-DL 1080p Latino hd 1080p latino.
Comentarios 0