Doctor Dolittle (2020) Full HD 1080p Latino

3.965 vistas
1 estrella2 estrellas3 estrellas4 estrellas5 estrellas (3 votos, promedio: 5,00 de 5)
Cargando…

Información de Doctor Dolittle (2020) Full HD 1080p Latino

Datos de la película

  • Calidad: Full 1080p
  • Audio: Se especifica abajo de la Sinopsis
  • Subtitulos: Español Latino PGS - Ingles PGS
  • Resolución: 1920x1080p
  • Formato: MKV
  • Codec: H.264
  • Encoder: CinefiloCool
  • Mediainfo: Clic para Mostrar Datos Ver
  • Doctor Dolittle (2020) Full HD 1080p Latino-CMHDD.mkv
    Format                      : Matroska
    Format version              : Version 4
    File size                   : 7.77 GiB
    Duration                    : 1 h 41 min
    Overall bit rate            : 11.0 Mb/s
    Movie name                  : Dolittle (2020) CinemaniaHDD.Net
    Encoded date                : UTC 2020-03-27 04:56:20
    Writing application         : mkvmerge v42.0.0 ('Overtime') 64-bit
    Writing library             : libebml v1.3.10 + libmatroska v1.5.2
    Attachments                 : CINEMANIAHD.png

    Video
    ID                          : 1
    Format                      : AVC
    Format/Info                 : Advanced Video Codec
    Format profile              : High@L4.1
    Format settings             : CABAC / 4 Ref Frames
    Format settings, CABAC      : Yes
    Format settings, ReFrames   : 4 frames
    Codec ID                    : V_MPEG4/ISO/AVC
    Duration                    : 1 h 41 min
    Bit rate                    : 8 218 kb/s
    Width                       : 1 920 pixels
    Height                      : 1 080 pixels
    Display aspect ratio        : 16:9
    Frame rate mode             : Constant
    Frame rate                  : 23.976 (24000/1001) FPS
    Color space                 : YUV
    Chroma subsampling          : 4:2:0
    Bit depth                   : 8 bits
    Scan type                   : Progressive
    Bits/(Pixel*Frame)          : 0.165
    Stream size                 : 5.82 GiB (75%)
    Title                       : Full HD1080p [Bluray]
    Writing library             : x264 core 157 r2935 545de2f
    Encoding settings           : cabac=1 / ref=4 / deblock=1:0:0 / analyse=0x3:0x133 / me=tesa / subme=11 / psy=1 / psy_rd=1.00:0.00 / mixed_ref=1 / me_range=24 / chroma_me=1 / trellis=2 / 8x8dct=1 / cqm=0 / deadzone=21,11 / fast_pskip=0 / chroma_qp_offset=-2 / threads=34 / lookahead_threads=8 / sliced_threads=0 / nr=0 / decimate=1 / interlaced=0 / bluray_compat=0 / constrained_intra=0 / bframes=16 / b_pyramid=2 / b_adapt=2 / b_bias=0 / direct=3 / weightb=1 / open_gop=0 / weightp=2 / keyint=240 / keyint_min=24 / scenecut=40 / intra_refresh=0 / rc_lookahead=60 / rc=crf / mbtree=1 / crf=19.0 / qcomp=0.60 / qpmin=0 / qpmax=69 / qpstep=4 / vbv_maxrate=62500 / vbv_bufsize=78125 / crf_max=0.0 / nal_hrd=none / filler=0 / ip_ratio=1.40 / aq=1:1.00
    Default                     : Yes
    Forced                      : Yes
    Color range                 : Limited
    Color primaries             : BT.709
    Transfer characteristics    : BT.709
    Matrix coefficients         : BT.709

    Audio #1
    ID                          : 2
    Format                      : E-AC-3
    Format/Info                 : Enhanced AC-3
    Commercial name             : Dolby Digital Plus
    Format profile              : Blu-ray Disc
    Codec ID                    : A_EAC3
    Duration                    : 1 h 41 min
    Bit rate mode               : Constant
    Bit rate                    : 768 kb/s
    Channel(s)                  : 8 channels
    Channel layout              : L R C LFE Ls Rs Lb Rb
    Sampling rate               : 48.0 kHz
    Frame rate                  : 31.250 FPS (1536 SPF)
    Compression mode            : Lossy
    Stream size                 : 557 MiB (7%)
    Title                       : DDP_7.1_Bluray_Esp
    Language                    : Spanish
    Service kind                : Complete Main
    Default                     : Yes
    Forced                      : Yes

    Audio #2
    ID                          : 3
    Format                      : DTS
    Format/Info                 : Digital Theater Systems
    Codec ID                    : A_DTS
    Duration                    : 1 h 41 min
    Bit rate mode               : Constant
    Bit rate                    : 1 509 kb/s
    Channel(s)                  : 6 channels
    Channel layout              : C L R Ls Rs LFE
    Sampling rate               : 48.0 kHz
    Frame rate                  : 93.750 FPS (512 SPF)
    Bit depth                   : 24 bits
    Compression mode            : Lossy
    Stream size                 : 1.07 GiB (14%)
    Title                       : DTS_5.1_Bluray_Eng
    Language                    : English
    Default                     : No
    Forced                      : No

    Audio #3
    ID                          : 4
    Format                      : AC-3
    Format/Info                 : Audio Coding 3
    Commercial name             : Dolby Digital
    Codec ID                    : A_AC3
    Duration                    : 1 h 41 min
    Bit rate mode               : Constant
    Bit rate                    : 448 kb/s
    Channel(s)                  : 6 channels
    Channel layout              : L R C LFE Ls Rs
    Sampling rate               : 48.0 kHz
    Frame rate                  : 31.250 FPS (1536 SPF)
    Bit depth                   : 16 bits
    Compression mode            : Lossy
    Stream size                 : 325 MiB (4%)
    Title                       : AC3_5.1_Bluray_Esp
    Language                    : Spanish
    Service kind                : Complete Main
    Default                     : No
    Forced                      : No

    Text #1
    ID                          : 5
    Format                      : PGS
    Muxing mode                 : zlib
    Codec ID                    : S_HDMV/PGS
    Codec ID/Info               : Picture based subtitle format used on BDs/HD-DVDs
    Duration                    : 1 h 34 min
    Bit rate                    : 398 b/s
    Count of elements           : 26
    Stream size                 : 277 KiB (0%)
    Title                       : Sub_Forzados [PGS]
    Language                    : Spanish
    Default                     : Yes
    Forced                      : Yes

    Text #2
    ID                          : 6
    Format                      : PGS
    Muxing mode                 : zlib
    Codec ID                    : S_HDMV/PGS
    Codec ID/Info               : Picture based subtitle format used on BDs/HD-DVDs
    Duration                    : 1 h 40 min
    Bit rate                    : 35.1 kb/s
    Count of elements           : 2794
    Stream size                 : 25.2 MiB (0%)
    Title                       : Sub_Esp [PGS]
    Language                    : Spanish
    Default                     : No
    Forced                      : No

    Text #3
    ID                          : 7
    Format                      : PGS
    Muxing mode                 : zlib
    Codec ID                    : S_HDMV/PGS
    Codec ID/Info               : Picture based subtitle format used on BDs/HD-DVDs
    Duration                    : 1 h 32 min
    Bit rate                    : 53.7 kb/s
    Count of elements           : 3750
    Stream size                 : 35.6 MiB (0%)
    Title                       : Sub_Eng [PGS]
    Language                    : English
    Default                     : No
    Forced                      : No

    Text #4
    ID                          : 8
    Format                      : UTF-8
    Codec ID                    : S_TEXT/UTF8
    Codec ID/Info               : UTF-8 Plain Text
    Duration                    : 1 h 34 min
    Bit rate                    : 0 b/s
    Count of elements           : 13
    Stream size                 : 397 Bytes (0%)
    Title                       : Sub_Forzados
    Language                    : Spanish
    Default                     : No
    Forced                      : No

    Text #5
    ID                          : 9
    Format                      : UTF-8
    Codec ID                    : S_TEXT/UTF8
    Codec ID/Info               : UTF-8 Plain Text
    Duration                    : 1 h 32 min
    Bit rate                    : 67 b/s
    Count of elements           : 1154
    Stream size                 : 46.0 KiB (0%)
    Title                       : Sub_Esp
    Language                    : Spanish
    Default                     : No
    Forced                      : No

    Menu
    00:00:00.000                : en:Chapter 01
    00:04:22.596                : en:Chapter 02
    00:09:36.826                : en:Chapter 03
    00:14:31.245                : en:Chapter 04
    00:18:37.325                : en:Chapter 05
    00:20:57.798                : en:Chapter 06
    00:23:02.172                : en:Chapter 07
    00:29:30.227                : en:Chapter 08
    00:35:58.156                : en:Chapter 09
    00:39:08.471                : en:Chapter 10
    00:45:47.745                : en:Chapter 11
    00:48:28.906                : en:Chapter 12
    00:53:06.392                : en:Chapter 13
    00:59:13.467                : en:Chapter 14
    01:04:55.141                : en:Chapter 15
    01:11:16.272                : en:Chapter 16
    01:17:05.996                : en:Chapter 17
    01:23:35.928                : en:Chapter 18
    01:30:01.479                : en:Chapter 19
    01:32:58.239                : en:Chapter 20

  • Peso: 7.77 GiB

Sinopsis

Descargar Doctor Dolittle (2020) Full HD 1080p Latino. El afamado y excéntrico Dr. Dolittle es un médico veterinario de la Inglaterra victoriana. Aislado en su mansión, Dolittle vive junto a sus animales exóticos, que son su única compañía. Pero cuando la joven reina Victoria cae gravemente enferma, este peculiar doctor tendrá que viajar hasta una mítica isla en busca de una cura. Muy a su pesar, Dolittle abandonará su vida de ermitaño para embarcarse en una épica aventura, en la que poco a poco recuperará su sentido del humor y su coraje, a medida que se encuentre con viejos adversarios y descubra maravillosas criaturas. En su viaje le acompañará su joven ayudante Tommy, además de todo un séquito de variopintos animales.

Audio Español Latino EAC3 7.1 + Core AC3 5.1 Bluray – Ingles DTS 5.1 Bluray

Ficha técnica

Video trailer de la película

Enlaces de descarga

Rip de Bluray

Descargar Doctor Dolittle (2020) Full HD 1080p Latino




Aportes de DPeliculasHDmega la pass es:dpeliculashdmega.org Aportes de CinemaniaHD la pass es:cinemaniahdd.com

Películas relacionadas

  • Dragonheart: Vengeance (2020) REMUX 1080p Latino

    Dragonheart: Vengeance (2020) REMUX 1080p Latino

    2020
    Dragonheart: Vengeance (2020) REMUX 1080p Latino

    5.0 1h 37m 2020

    Lukas (Jack Kane), está en búsqueda de venganza, y forma un trío casi imposible con una dragona lanza...

    Director: Ivan Silvestrini

    Género: Fantasía

    Actores: Tam Williams

  • Las pildoras de mi novio (2020) WEB-DL 1080p Latino

    Las pildoras de mi novio (2020) WEB-DL 1080p Latino

    2020
    Las pildoras de mi novio (2020) WEB-DL 1080p Latino

    0.0 1h 40m 2020

    Una escapada de vacaciones de una mujer con su novio, que sufre personalidad múltiple, toma un giro...

    Director: Diego Kaplan

    Género: Comedia

    Actores: Sandra Echeverría

  • Dragonheart: Vengeance (2020) 1080p Latino

    Dragonheart: Vengeance (2020) 1080p Latino

    2020
    Dragonheart: Vengeance (2020) 1080p Latino

    5.0 1h 37m 2020

    Lukas, un joven agricultor cuya familia es asesinada por salvajes guerreros, se embarca en una aventura...

    Director: Ivan Silvestrini

    Género: Fantasía

    Actores: Tam Williams

  • James Bond: Sólo para Tus Ojos (1981) 1080p Latino

    James Bond: Sólo para Tus Ojos (1981) 1080p Latino

    1981
    James Bond: Sólo para Tus Ojos (1981) 1080p Latino

    0.0 2h 7m 1981

    Descargar James Bond: Sólo para Tus Ojos (1981) 1080p Latino. En esta entrega el agente 007 deberá...

    Director: John Glen

    Género: Acción

    Actores: William Hoyland

Comentarios 0