×

¿Problemas para descargar con Mozilla, EDGE? Deshabilita la opción "Abrir vinculos en una pestaña nueva" tal como lo muestra ésta imagen.

Doc Hollywood (1991) REMUX 1080p Latino – CMHDD

168 vistas

Información de Doc Hollywood (1991) REMUX 1080p Latino – CMHDD

Datos de la película

  • Calidad: Full 1080p
  • Audio: Se especifica abajo de la Sinopsis
  • Subtitulos: Español Latino PGS
  • Resolución: 1920x1080p
  • Formato: MKV
  • Codec: H.264
  • Encoder: Dracarys
  • Mediainfo: Clic para Mostrar Datos Ver
  • Format                      : Matroska
    Format version              : Version 4
    File size                   : 26.8 GiB
    Duration                    : 1 h 43 min
    Overall bit rate mode       : Variable
    Overall bit rate            : 37.1 Mb/s
    Movie name                  : Doc Hollywood (1991) REMUX 1080p Latino - CMHDD
    Encoded date                : UTC 2021-05-23 04:40:48
    Writing application         : mkvmerge v56.1.0 ('My Friend') 64-bit
    Writing library             : libebml v1.4.2 + libmatroska v1.6.4
    Cover                       : Yes
    Attachments                 : cover.jpg

    Video
    ID                          : 1
    ID in the original source m : 4113 (0x1011)
    Format                      : AVC
    Format/Info                 : Advanced Video Codec
    Format profile              : High@L4.1
    Format settings             : CABAC / 4 Ref Frames
    Format settings, CABAC      : Yes
    Format settings, Reference  : 4 frames
    Codec ID                    : V_MPEG4/ISO/AVC
    Duration                    : 1 h 43 min
    Bit rate mode               : Variable
    Bit rate                    : 34.9 Mb/s
    Maximum bit rate            : 38.0 Mb/s
    Width                       : 1 920 pixels
    Height                      : 1 080 pixels
    Display aspect ratio        : 16:9
    Frame rate mode             : Constant
    Frame rate                  : 23.976 (24000/1001) FPS
    Color space                 : YUV
    Chroma subsampling          : 4:2:0
    Bit depth                   : 8 bits
    Scan type                   : Progressive
    Bits/(Pixel*Frame)          : 0.701
    Stream size                 : 25.2 GiB (94%)
    Default                     : Yes
    Forced                      : No
    Original source medium      : Blu-ray

    Audio #1
    ID                          : 2
    Format                      : AC-3
    Format/Info                 : Audio Coding 3
    Commercial name             : Dolby Digital
    Codec ID                    : A_AC3
    Duration                    : 1 h 43 min
    Bit rate mode               : Constant
    Bit rate                    : 192 kb/s
    Channel(s)                  : 2 channels
    Channel layout              : L R
    Sampling rate               : 48.0 kHz
    Frame rate                  : 31.250 FPS (1536 SPF)
    Compression mode            : Lossy
    Delay relative to video     : 504 ms
    Stream size                 : 142 MiB (1%)
    Language                    : Spanish
    Service kind                : Complete Main
    Default                     : Yes
    Forced                      : No

    Audio #2
    ID                          : 3
    ID in the original source m : 4352 (0x1100)
    Format                      : DTS XLL
    Format/Info                 : Digital Theater Systems
    Commercial name             : DTS-HD Master Audio
    Codec ID                    : A_DTS
    Duration                    : 1 h 43 min
    Bit rate mode               : Variable
    Bit rate                    : 2 062 kb/s
    Channel(s)                  : 2 channels
    Channel layout              : L R
    Sampling rate               : 48.0 kHz
    Frame rate                  : 93.750 FPS (512 SPF)
    Bit depth                   : 24 bits
    Compression mode            : Lossless
    Stream size                 : 1.49 GiB (6%)
    Language                    : English
    Default                     : No
    Forced                      : No
    Original source medium      : Blu-ray

    Text
    ID                          : 4
    Format                      : UTF-8
    Codec ID                    : S_TEXT/UTF8
    Codec ID/Info               : UTF-8 Plain Text
    Duration                    : 1 h 40 min
    Bit rate                    : 58 b/s
    Count of elements           : 1229
    Stream size                 : 42.5 KiB (0%)
    Language                    : Spanish
    Default                     : No
    Forced                      : No

    Menu
    00:00:00.000                : Chapter 01

  • Peso: 26.8 GiB

Sinopsis

Un joven doctor de camino a Los Ángeles para forrarse como cirujano tiene un altercado en un pequeño pueblo y es obligado a ejercer como médico de familia hasta reparar su daño. Simpática comedia sobre el dilema de vivir en un tranquilo pueblecito donde la gente es feliz o hacerlo en una gran ciudad llena de estrés

 

 

Latino: AC3 2.0  –  Ingles: DTS-HD MA 2.0

Ficha técnica

Video trailer de la película

Enlaces de descarga

Rip de Bluray

Descargar Doc Hollywood (1991) REMUX 1080p Latino – CMHDD


Aportes de DPeliculasHDmega la pass es:dpeliculashdmega.org Aportes de CinemaniaHD la pass es:cinemaniahdd.com
Guardado en : Comedia , Romance

Películas relacionadas

descargar Doc Hollywood (1991) REMUX 1080p Latino – CMHDD Full 1080p 1080p gratis, Doc Hollywood (1991) REMUX 1080p Latino – CMHDD Full 1080p mega 1 link, Doc Hollywood (1991) REMUX 1080p Latino – CMHDD Full 1080p pelicula completa, descargar Doc Hollywood (1991) REMUX 1080p Latino – CMHDD Full 1080p gratis en mega.

Doc Hollywood (1991) REMUX 1080p Latino – CMHDD pelicula full hd, Doc Hollywood (1991) REMUX 1080p Latino – CMHDD mega latino, Doc Hollywood (1991) REMUX 1080p Latino – CMHDD 4k latino, Doc Hollywood (1991) REMUX 1080p Latino – CMHDD pelicula completa, Doc Hollywood (1991) REMUX 1080p Latino – CMHDD descargar gratis, descargar Doc Hollywood (1991) REMUX 1080p Latino – CMHDD pelicula latino, Doc Hollywood (1991) REMUX 1080p Latino – CMHDD 1 link mega, Doc Hollywood (1991) REMUX 1080p Latino – CMHDD 1 link google drive, Doc Hollywood (1991) REMUX 1080p Latino – CMHDD hd 1080p latino.
Comentarios 0