×

¿Problemas para descargar con Mozilla, EDGE? Deshabilita la opción "Abrir vinculos en una pestaña nueva" tal como lo muestra ésta imagen.

Doblemente embarazada (2019) AMZN WEB-DL 1080p Latino

1.281 vistas

Información de Doblemente embarazada (2019) AMZN WEB-DL 1080p Latino

Datos de la película

  • Calidad: WEBDL
  • Audio: Español Latino AC3 5.1
  • Subtitulos: Español Latino SRT
  • Resolución: 1920x1080
  • Formato: MKV
  • Codec: H.264
  • Encoder: cinemaniahdd
  • Mediainfo: Clic para Mostrar Datos Ver
  • Doblemente Embarazada (2019) AMZN WEB-DL 1080p Latino.mkv
    Format                      : Matroska
    Format version              : Version 4
    File size                   : 6.84 GiB
    Duration                    : 1 h 38 min
    Overall bit rate            : 9 948 kb/s
    Movie name                  : Doblemente Embarazada (2019) - CinemaniaHDD.Net
    Encoded date                : UTC 2020-03-06 05:56:43
    Writing application         : mkvmerge v42.0.0 ('Overtime') 64-bit
    Writing library             : libebml v1.3.10 + libmatroska v1.5.2

    Video
    ID                          : 1
    Format                      : AVC
    Format/Info                 : Advanced Video Codec
    Format profile              : High@L4
    Format settings             : CABAC / 4 Ref Frames
    Format settings, CABAC      : Yes
    Format settings, ReFrames   : 4 frames
    Codec ID                    : V_MPEG4/ISO/AVC
    Duration                    : 1 h 38 min
    Bit rate mode               : Constant
    Bit rate                    : 9 305 kb/s
    Nominal bit rate            : 10 000 kb/s
    Width                       : 1 920 pixels
    Height                      : 1 040 pixels
    Display aspect ratio        : 1.85:1
    Frame rate mode             : Constant
    Frame rate                  : 23.976 (24000/1001) FPS
    Color space                 : YUV
    Chroma subsampling          : 4:2:0
    Bit depth                   : 8 bits
    Scan type                   : Progressive
    Bits/(Pixel*Frame)          : 0.194
    Stream size                 : 6.39 GiB (94%)
    Title                       : CinemaniaHDD
    Default                     : Yes
    Forced                      : No
    Color range                 : Limited
    Color primaries             : BT.709
    Transfer characteristics    : BT.709
    Matrix coefficients         : BT.709

    Audio
    ID                          : 2
    Format                      : AC-3
    Format/Info                 : Audio Coding 3
    Commercial name             : Dolby Digital
    Codec ID                    : A_AC3
    Duration                    : 1 h 38 min
    Bit rate mode               : Constant
    Bit rate                    : 640 kb/s
    Channel(s)                  : 6 channels
    Channel layout              : L R C LFE Ls Rs
    Sampling rate               : 48.0 kHz
    Frame rate                  : 31.250 FPS (1536 SPF)
    Bit depth                   : 16 bits
    Compression mode            : Lossy
    Stream size                 : 450 MiB (6%)
    Title                       : Español latino [CinemaniaHDD]
    Language                    : Spanish
    Service kind                : Complete Main
    Default                     : Yes
    Forced                      : No

    Text
    ID                          : 3
    Format                      : UTF-8
    Codec ID                    : S_TEXT/UTF8
    Codec ID/Info               : UTF-8 Plain Text
    Duration                    : 1 h 37 min
    Bit rate                    : 75 b/s
    Count of elements           : 2032
    Stream size                 : 53.8 KiB (0%)
    Title                       : Español latino [CinemaniaHDD]
    Language                    : Spanish
    Default                     : No
    Forced                      : No

     

  • Peso: 6.84 GiB

Sinopsis

Una mujer queda embarazada de gemelos fraternos, uno de su prometido y el otro de un antiguo amante.

Ficha técnica

  • Titulo original: Doblemente embarazada
  • Fecha de lanzamiento: 19-12-2019 (Mexico)
  • Director: Koko Stambuk
  • Género: Comedia

Video trailer de la película

Enlaces de descarga

Rip de Bluray

Descargar Doblemente embarazada (2019) AMZN WEB-DL 1080p Latino




Aportes de DPeliculasHDmega la pass es:dpeliculashdmega.org Aportes de CinemaniaHD la pass es:cinemaniahdd.com
Guardado en : Comedia

Películas relacionadas

  • M3GAN (2023) AMZN WEB-DL 4K UHD HDR Latino

    M3GAN (2023) AMZN WEB-DL 4K UHD HDR Latino

    2022
    M3GAN (2023) AMZN WEB-DL 4K UHD HDR Latino

    1h 42m 2022

    Descargar M3GAN (2023) AMZN WEB-DL 4K UHD HDR Latino. Cuando Gemma se convierte en la cuidadora de su...

    Director: Stephen W. Moore

    Género: 4K HDR

    Actores: Violet McGraw

  • M3GAN (2022) MA WEB-DL 1080p Latino

    M3GAN (2022) MA WEB-DL 1080p Latino

    2022
    M3GAN (2022) MA WEB-DL 1080p Latino

    1h 42m 2022

    Descargar M3GAN (2022) MA WEB-DL 1080p Latino. Cuando Gemma se convierte en la cuidadora de su sobrina...

    Director: Stephen W. Moore

    Género: Ciencia ficción

    Actores: Violet McGraw

  • Noche sin paz (2022) PLACEBO Full HD 1080p Latino

    Noche sin paz (2022) PLACEBO Full HD 1080p Latino

    2022
    Noche sin paz (2022) PLACEBO Full HD 1080p Latino

    1h 41m 2022

    Descargar Noche sin paz (2022) PLACEBO Full HD 1080p Latino. Cuando un equipo de mercenarios irrumpe...

    Director: Tyshana Hobson

    Género: Acción

    Actores: Yoon Cha-Lee

  • Noche sin paz (2022) HD 1080p Latino

    Noche sin paz (2022) HD 1080p Latino

    2022
    Noche sin paz (2022) HD 1080p Latino

    1h 41m 2022

    Descargar Noche sin paz (2022) HD 1080p Latino. Cuando un equipo de mercenarios irrumpe en Nochebuena...

    Director: Tyshana Hobson

    Género: Acción

    Actores: Yoon Cha-Lee

  • Noche sin paz (2022) REMUX 1080p Latino

    Noche sin paz (2022) REMUX 1080p Latino

    2022
    Noche sin paz (2022) REMUX 1080p Latino

    1h 41m 2022

    Descargar Noche sin paz (2022) REMUX 1080p Latino. Cuando un equipo de mercenarios irrumpe en Nochebuena...

    Director: Tyshana Hobson

    Género: Acción

    Actores: Yoon Cha-Lee

descargar Doblemente embarazada (2019) AMZN WEB-DL 1080p Latino WEBDL 1080p gratis, Doblemente embarazada (2019) AMZN WEB-DL 1080p Latino WEBDL mega 1 link, Doblemente embarazada (2019) AMZN WEB-DL 1080p Latino WEBDL pelicula completa, descargar Doblemente embarazada (2019) AMZN WEB-DL 1080p Latino WEBDL gratis en mega.

Doblemente embarazada (2019) AMZN WEB-DL 1080p Latino pelicula full hd, Doblemente embarazada (2019) AMZN WEB-DL 1080p Latino mega latino, Doblemente embarazada (2019) AMZN WEB-DL 1080p Latino 4k latino, Doblemente embarazada (2019) AMZN WEB-DL 1080p Latino pelicula completa, Doblemente embarazada (2019) AMZN WEB-DL 1080p Latino descargar gratis, descargar Doblemente embarazada (2019) AMZN WEB-DL 1080p Latino pelicula latino, Doblemente embarazada (2019) AMZN WEB-DL 1080p Latino 1 link mega, Doblemente embarazada (2019) AMZN WEB-DL 1080p Latino 1 link google drive, Doblemente embarazada (2019) AMZN WEB-DL 1080p Latino hd 1080p latino.
Comentarios 2
  • Joses - 06 marzo, 2020

    Porque siempre falla la página para ver los links ….. es fastidioso estar a cada rato escribirles por este motivo…

    • CinemaniaHDD - 06 marzo, 2020

      yo tengo todo correcto en mi sistema.
      aveces las publicidades no aparecen y eso es culpa del publicitario no nuestra y eso depende de cada pais
      lo mejor que puedes hacer es unirte al VIP, y ese problema lo resolveras