×

¿Problemas para descargar con Mozilla, EDGE? Deshabilita la opción "Abrir vinculos en una pestaña nueva" tal como lo muestra ésta imagen.

Do the Right Thing (1989) REMUX 4K HDR Latino – CMHDD

173 vistas

Información de Do the Right Thing (1989) REMUX 4K HDR Latino – CMHDD

Datos de la película

  • Calidad: 4K HDR
  • Audio: Español Latino DTS 5.1 BLURAY - Ingles DTS-HD Master 7.1 BLURAY
  • Subtitulos: Español Latino PGS
  • Resolución: 3840x2160p
  • Formato: MKV
  • Codec: H.264
  • Encoder: Dracarys
  • Mediainfo: Clic para Mostrar Datos Ver
  • Format                      : Matroska
    Format version              : Version 4
    File size                   : 70.7 GiB
    Duration                    : 1 h 59 min
    Overall bit rate mode       : Variable
    Overall bit rate            : 84.4 Mb/s
    Movie name                  : Do the Right Thing (1989) REMUX 4K HDR Latino - CMHDD
    Encoded date                : UTC 2023-03-09 23:32:36
    Writing application         : mkvmerge v47.0.0 ('Black Flag') 64-bit
    Writing library             : libebml v1.3.10 + libmatroska v1.5.2

    Video
    ID                          : 1
    ID in the original source m : 4113 (0x1011)
    Format                      : HEVC
    Format/Info                 : High Efficiency Video Coding
    Format profile              : Main 10@L5.1@High
    HDR format                  : SMPTE ST 2086, HDR10 compatible
    Codec ID                    : V_MPEGH/ISO/HEVC
    Duration                    : 1 h 59 min
    Bit rate                    : 77.7 Mb/s
    Width                       : 3 840 pixels
    Height                      : 2 160 pixels
    Display aspect ratio        : 16:9
    Frame rate mode             : Constant
    Frame rate                  : 23.976 (24000/1001) FPS
    Color space                 : YUV
    Chroma subsampling          : 4:2:0 (Type 2)
    Bit depth                   : 10 bits
    Bits/(Pixel*Frame)          : 0.391
    Stream size                 : 65.0 GiB (92%)
    Language                    : English
    Default                     : No
    Forced                      : No
    Color range                 : Limited
    Color primaries             : BT.2020
    Transfer characteristics    : PQ
    Matrix coefficients         : BT.2020 non-constant
    Mastering display color pri : Display P3
    Mastering display luminance : min: 0.0050 cd/m2, max: 1000 cd/m2
    Maximum Content Light Level : 628 cd/m2
    Maximum Frame-Average Light : 104 cd/m2
    Original source medium      : Blu-ray

    Audio #1
    ID                          : 2
    ID in the original source m : 4352 (0x1100)
    Format                      : DTS XLL X
    Format/Info                 : Digital Theater Systems
    Commercial name             : DTS-HD Master Audio
    Codec ID                    : A_DTS
    Duration                    : 1 h 59 min
    Bit rate mode               : Variable
    Bit rate                    : 5 330 kb/s
    Channel(s)                  : 8 channels
    Channel(s)_Original         : Object Based
    ChannelLayout_Original      : Object Based
    Sampling rate               : 48.0 kHz
    Frame rate                  : 93.750 FPS (512 SPF)
    Bit depth                   : 24 bits
    Stream size                 : 4.46 GiB (6%)
    Title                       : DTS-X 7.1
    Language                    : English
    Default                     : No
    Forced                      : No
    Original source medium      : Blu-ray

    Audio #2
    ID                          : 3
    Format                      : AC-3
    Format/Info                 : Audio Coding 3
    Commercial name             : Dolby Digital
    Codec ID                    : A_AC3
    Duration                    : 1 h 59 min
    Bit rate mode               : Constant
    Bit rate                    : 640 kb/s
    Channel(s)                  : 6 channels
    Channel layout              : L R C LFE Ls Rs
    Sampling rate               : 48.0 kHz
    Frame rate                  : 31.250 FPS (1536 SPF)
    Compression mode            : Lossy
    Stream size                 : 548 MiB (1%)
    Title                       : DD  5.1
    Language                    : English
    Service kind                : Complete Main
    Default                     : No
    Forced                      : No

    Audio #3
    ID                          : 4
    ID in the original source m : 4353 (0x1101)
    Format                      : DTS
    Format/Info                 : Digital Theater Systems
    Codec ID                    : A_DTS
    Duration                    : 1 h 59 min
    Bit rate mode               : Constant
    Bit rate                    : 768 kb/s
    Channel(s)                  : 6 channels
    Channel layout              : C L R Ls Rs LFE
    Sampling rate               : 48.0 kHz
    Frame rate                  : 93.750 FPS (512 SPF)
    Bit depth                   : 24 bits
    Compression mode            : Lossy
    Stream size                 : 658 MiB (1%)
    Title                       : DTS 5.1
    Language                    : Spanish
    Default                     : Yes
    Forced                      : No
    Original source medium      : Blu-ray

    Text #1
    ID                          : 5
    ID in the original source m : 4769 (0x12A1)
    Format                      : PGS
    Muxing mode                 : zlib
    Codec ID                    : S_HDMV/PGS
    Codec ID/Info               : Picture based subtitle format used on BDs/HD-DVDs
    Duration                    : 1 h 49 min
    Bit rate                    : 48.0 kb/s
    Frame rate                  : 0.514 FPS
    Count of elements           : 3374
    Stream size                 : 37.5 MiB (0%)
    Language                    : Spanish
    Default                     : No
    Forced                      : No
    Original source medium      : Blu-ray

    Text #2
    ID                          : 6
    ID in the original source m : 4771 (0x12A3)
    Format                      : PGS
    Muxing mode                 : zlib
    Codec ID                    : S_HDMV/PGS
    Codec ID/Info               : Picture based subtitle format used on BDs/HD-DVDs
    Duration                    : 1 h 33 min
    Bit rate                    : 1 291 b/s
    Frame rate                  : 0.011 FPS
    Count of elements           : 62
    Stream size                 : 887 KiB (0%)
    Language                    : Spanish
    Default                     : Yes
    Forced                      : No
    Original source medium      : Blu-ray

    Menu
    00:00:00.000                : en:Chapter 01
    00:04:21.928                : en:Chapter 02
    00:18:24.228                : en:Chapter 03
    00:24:51.615                : en:Chapter 04
    00:30:15.939                : en:Chapter 05
    00:36:28.102                : en:Chapter 06
    00:44:14.151                : en:Chapter 07
    00:49:56.743                : en:Chapter 08
    00:57:36.202                : en:Chapter 09
    01:05:17.663                : en:Chapter 10
    01:17:58.382                : en:Chapter 11
    01:23:32.507                : en:Chapter 12
    01:28:06.656                : en:Chapter 13
    01:36:23.360                : en:Chapter 14
    01:44:38.230                : en:Chapter 15
    01:51:59.421                : en:Chapter 16

  • Peso: 70.7 GiB

Sinopsis

En uno de los barrios más humildes de Brooklyn, Bedford Stuyvesant, conviven atropelladamente varias familias de raza negra, algunos hispanos, una pareja de comerciantes vietnamitas y una familia de italoamericanos que tienen una pizzeria. Mookie, un chico que trabaja de repartidor de pizzas, es un testigo privilegiado de los personajes y de los hechos cotidianos que tienen lugar en el barrio, así como de las tensiones y las actitudes racistas de algunos de sus habitantes

Ficha técnica

  • Titulo original: Do the Right Thing
  • Fecha de lanzamiento: 14-06-1989 (United States of America)
  • Director: Spike Lee
  • Género: Drama

Video trailer de la película

Enlaces de descarga

Rip de Bluray

Descargar Do the Right Thing (1989) REMUX 4K HDR Latino – CMHDD


Aportes de DPeliculasHDmega la pass es:dpeliculashdmega.org Aportes de CinemaniaHD la pass es:cinemaniahdd.com Aportes recientes:cinemaniahdd.net
Guardado en : Drama

Películas relacionadas

descargar Do the Right Thing (1989) REMUX 4K HDR Latino – CMHDD 4K HDR 1080p gratis, Do the Right Thing (1989) REMUX 4K HDR Latino – CMHDD 4K HDR mega 1 link, Do the Right Thing (1989) REMUX 4K HDR Latino – CMHDD 4K HDR pelicula completa, descargar Do the Right Thing (1989) REMUX 4K HDR Latino – CMHDD 4K HDR gratis en mega.

Do the Right Thing (1989) REMUX 4K HDR Latino – CMHDD pelicula full hd, Do the Right Thing (1989) REMUX 4K HDR Latino – CMHDD mega latino, Do the Right Thing (1989) REMUX 4K HDR Latino – CMHDD 4k latino, Do the Right Thing (1989) REMUX 4K HDR Latino – CMHDD pelicula completa, Do the Right Thing (1989) REMUX 4K HDR Latino – CMHDD descargar gratis, descargar Do the Right Thing (1989) REMUX 4K HDR Latino – CMHDD pelicula latino, Do the Right Thing (1989) REMUX 4K HDR Latino – CMHDD 1 link mega, Do the Right Thing (1989) REMUX 4K HDR Latino – CMHDD 1 link google drive, Do the Right Thing (1989) REMUX 4K HDR Latino – CMHDD hd 1080p latino.
Comentarios 0