×

¿Problemas para descargar con Mozilla, EDGE? Deshabilita la opción "Abrir vinculos en una pestaña nueva" tal como lo muestra ésta imagen.

Django sin Cadenas (2012) [Multi-Doblaje] REMUX 1080p Latino

883 vistas

Información de Django sin Cadenas (2012) [Multi-Doblaje] REMUX 1080p Latino

5OX0PJlX5h5CUShNmEwehrJhLIB

Datos de la película

  • Calidad: Full 1080p
  • Audio: Se especifica abajo de la Sinopsis
  • Subtitulos: Español Latino PGS - Ingles PGS
  • Resolución: 1920x1080
  • Formato: MKV
  • Codec: H.264
  • Encoder: cinemaniahdd
  • Mediainfo: Clic para Mostrar Datos Ver
  • Django Unchained (2012) [Multi-Doblaje] REMUX 1080p Latino.mkv
    Format                      : Matroska
    Format version              : Version 4
    File size                   : 35.3 GiB
    Duration                    : 2 h 45 min
    Overall bit rate mode       : Variable
    Overall bit rate            : 30.6 Mb/s
    Movie name                  : Django Unchained (2012) - CinemaniaHDD.Net
    Encoded date                : UTC 2019-09-13 17:16:15
    Writing application         : mkvmerge v35.0.0 ('All The Love In The World') 64-bit
    Writing library             : libebml v1.3.9 + libmatroska v1.5.2

    Video
    ID                          : 1
    Format                      : AVC
    Format/Info                 : Advanced Video Codec
    Format profile              : High@L4.1
    Format settings             : CABAC / 2 Ref Frames
    Format settings, CABAC      : Yes
    Format settings, ReFrames   : 2 frames
    Codec ID                    : V_MPEG4/ISO/AVC
    Duration                    : 2 h 45 min
    Bit rate mode               : Variable
    Bit rate                    : 26.7 Mb/s
    Width                       : 1 920 pixels
    Height                      : 1 080 pixels
    Display aspect ratio        : 16:9
    Frame rate mode             : Constant
    Frame rate                  : 23.976 (24000/1001) FPS
    Color space                 : YUV
    Chroma subsampling          : 4:2:0
    Bit depth                   : 8 bits
    Scan type                   : Progressive
    Bits/(Pixel*Frame)          : 0.537
    Stream size                 : 30.8 GiB (87%)
    Title                       : CinemaniaHDD
    Default                     : Yes
    Forced                      : No

    Audio #1
    ID                          : 2
    Format                      : AC-3
    Format/Info                 : Audio Coding 3
    Commercial name             : Dolby Digital
    Codec ID                    : A_AC3
    Duration                    : 2 h 45 min
    Bit rate mode               : Constant
    Bit rate                    : 640 kb/s
    Channel(s)                  : 6 channels
    Channel layout              : L R C LFE Ls Rs
    Sampling rate               : 48.0 kHz
    Frame rate                  : 31.250 FPS (1536 SPF)
    Bit depth                   : 16 bits
    Compression mode            : Lossy
    Stream size                 : 757 MiB (2%)
    Title                       : Doblaje - Argentino [CinemaniaHDD]
    Language                    : Spanish
    Service kind                : Complete Main
    Default                     : Yes
    Forced                      : No

    Audio #2
    ID                          : 3
    Format                      : AC-3
    Format/Info                 : Audio Coding 3
    Commercial name             : Dolby Digital
    Codec ID                    : A_AC3
    Duration                    : 2 h 45 min
    Bit rate mode               : Constant
    Bit rate                    : 448 kb/s
    Channel(s)                  : 6 channels
    Channel layout              : L R C LFE Ls Rs
    Sampling rate               : 48.0 kHz
    Frame rate                  : 31.250 FPS (1536 SPF)
    Bit depth                   : 16 bits
    Compression mode            : Lossy
    Stream size                 : 530 MiB (1%)
    Title                       : Doboblaje - Mexicano  [CinemaniaHDD]
    Language                    : Spanish
    Service kind                : Complete Main
    Default                     : No
    Forced                      : No

    Audio #3
    ID                          : 4
    Format                      : DTS XLL
    Format/Info                 : Digital Theater Systems
    Commercial name             : DTS-HD Master Audio
    Codec ID                    : A_DTS
    Duration                    : 2 h 45 min
    Bit rate mode               : Variable
    Bit rate                    : 2 783 kb/s
    Channel(s)                  : 6 channels
    Channel layout              : C L R Ls Rs LFE
    Sampling rate               : 48.0 kHz
    Frame rate                  : 93.750 FPS (512 SPF)
    Bit depth                   : 24 bits
    Compression mode            : Lossless
    Stream size                 : 3.21 GiB (9%)
    Title                       : Ingles [CinemaniaHDD]
    Language                    : English
    Default                     : No
    Forced                      : No

    Text #1
    ID                          : 5
    Format                      : UTF-8
    Codec ID                    : S_TEXT/UTF8
    Codec ID/Info               : UTF-8 Plain Text
    Duration                    : 8 min 24 s
    Bit rate                    : 1 b/s
    Count of elements           : 4
    Stream size                 : 76.0 Bytes (0%)
    Title                       : Forzados [CinemaniaHDD]
    Default                     : Yes
    Forced                      : No

    Text #2
    ID                          : 6
    Format                      : UTF-8
    Codec ID                    : S_TEXT/UTF8
    Codec ID/Info               : UTF-8 Plain Text
    Duration                    : 2 h 44 min
    Bit rate                    : 53 b/s
    Count of elements           : 1943
    Stream size                 : 64.8 KiB (0%)
    Title                       : Español latino Dob_ARG [CinemaniaHDD]
    Language                    : Spanish
    Default                     : No
    Forced                      : No

    Text #3
    ID                          : 7
    Format                      : PGS
    Muxing mode                 : zlib
    Codec ID                    : S_HDMV/PGS
    Codec ID/Info               : Picture based subtitle format used on BDs/HD-DVDs
    Duration                    : 2 h 44 min
    Bit rate                    : 34.5 kb/s
    Count of elements           : 3812
    Stream size                 : 40.5 MiB (0%)
    Title                       : Español latino Dob_MX [CinemaniaHDD]
    Language                    : Spanish
    Default                     : No
    Forced                      : No

    Text #4
    ID                          : 8
    Format                      : PGS
    Muxing mode                 : zlib
    Codec ID                    : S_HDMV/PGS
    Codec ID/Info               : Picture based subtitle format used on BDs/HD-DVDs
    Duration                    : 2 h 40 min
    Bit rate                    : 33.3 kb/s
    Count of elements           : 3750
    Stream size                 : 38.3 MiB (0%)
    Title                       : Ingles [CinemaniaHDD]
    Language                    : English
    Default                     : No
    Forced                      : No

    Menu
    00:00:00.000                : en:Django Unchained
    00:03:36.466                : en:1858 - Somewhere in Texas
    00:12:47.933                : en:Daughtrey, Texas
    00:18:49.419                : en:Sheriff Bill Sharp
    00:26:48.273                : en:Tennessee
    00:31:44.527                : en:"You mean you wanna dress like that?"
    00:40:27.133                : en:It's a Raid
    00:46:05.512                : en:The Legend of Broomhilda
    00:52:36.862                : en:Smitty Bacall
    00:58:12.822                : en:Mississippi
    01:02:20.319                : en:One-Eyed Charlie
    01:12:13.495                : en:The Ride to Candieland
    01:18:35.794                : en:The Trackers
    01:26:08.037                : en:Candieland
    01:34:49.642                : en:Dr. Schultz Meets Broomhilda
    01:40:52.379                : en:"You knows what I like"
    01:45:34.036                : en:Eskimo Joe
    01:50:01.094                : en:"You scarin' me"
    01:55:03.980                : en:Old Ben
    02:03:54.969                : en:"Please stop playing Beethoven"
    02:08:14.103                : en:"Broomhilda Von Shaft, consider yourself a free woman"
    02:14:14.379                : en:"Django, we got your woman"
    02:17:28.990                : en:Castration Scene
    02:22:32.544                : en:Lequint Dickey Mining Company
    02:26:28.529                : en:"He weren't no slave"
    02:33:00.462                : en:"Django Says Goodbye to Dr. Schultz
    02:35:41.999                : en:"In the sweet by and by"
    02:41:30.931                : en:"They will call you the fastest gun in the south"

     

  • Peso: 35.3 GiB

Sinopsis

Descargar Django sin Cadenas (2012) [Multi-Doblaje] REMUX 1080p Latino, Dos años antes de estallar la Guerra Civil (1861-1865), Schultz, un cazarrecompensas alemán que le sigue la pista a unos asesinos, le promete al esclavo Django dejarlo en libertad si le ayuda a atraparlos. Terminado con éxito el trabajo, Django prefiere seguir al lado del alemán y ayudarle a capturar a los delincuentes más buscados del Sur. Se convierte así en un experto cazador de recompensas, pero su único objetivo es rescatar a su esposa Broomhilda, a la que perdió por culpa del tráfico de esclavos. La búsqueda llevará a Django y a Schultz hasta Calvin Candie, el malvado propietario de la plantación «Candyland». La presencia de ambos en los alrededores de la propiedad, despierta las sospechas de Stephen, el esclavo de confianza de Candie.

Español Latino 5.1 Doblaje 1 – Español Latino 5.1 Doblaje 2 – Ingles 5.1 Bluray

Ficha técnica

Video trailer de la película

Enlaces de descarga

Rip de Bluray

Descargar Django sin Cadenas (2012) [Multi-Doblaje] REMUX 1080p Latino




Aportes de DPeliculasHDmega la pass es:dpeliculashdmega.org Aportes de CinemaniaHD la pass es:cinemaniahdd.com
Guardado en : Drama , Remux , Western

Películas relacionadas

  • Wire Room (2022) REMUX 1080p Latino

    Wire Room (2022) REMUX 1080p Latino

    2022
    Wire Room (2022) REMUX 1080p Latino

    1h 37m 2022

    Descargar Wire Room (2022) REMUX 1080p Latino. Mientras está de servicio en la sala de cables, un agente...

    Director: Matt Eskandari

    Género: Acción

    Actores: Texas Battle

  • Alarido (2022) REMUX 1080p Latino

    Alarido (2022) REMUX 1080p Latino

    2022
    Alarido (2022) REMUX 1080p Latino

    1h 29m 2022

    Descargar Alarido (2022) REMUX 1080p Latino. Una joven madre soltera es cautiva junto con sus dos hijos...

    Director: D.J. Caruso

    Género: Remux

    Actores: Vincent Gallo

  • After: Amor infinito (2022) AMZN WEB-DL 1080p Latino

    After: Amor infinito (2022) AMZN WEB-DL 1080p Latino

    2022
    After: Amor infinito (2022) AMZN WEB-DL 1080p Latino

    1h 35m 2022

    Descargar After: Amor infinito (2022) AMZN WEB-DL 1080p Latino. El amor de Tessa y Hardin nunca ha sido...

    Director: Castille Landon

    Género: Drama

    Actores: Velizar Nikolaev Biney

  • Blonde (2022) NF WEB-DL 1080p Latino

    Blonde (2022) NF WEB-DL 1080p Latino

    2022
    Blonde (2022) NF WEB-DL 1080p Latino

    2h 46m 2022

    Descargar Blonde (2022) NF WEB-DL 1080p Latino. Basada en el bestseller de la cinco veces finalista al...

    Director: Kristin Bree Calabrese

    Género: Drama

    Actores: Xavier Samuel

  • Borrego: Sal Del Camino (2022) REMUX 1080p Latino

    Borrego: Sal Del Camino (2022) REMUX 1080p Latino

    2022
    Borrego: Sal Del Camino (2022) REMUX 1080p Latino

    1h 42m 2022

    Descargar Borrego: Sal Del Camino (2022) REMUX 1080p Latino. Una joven botánica se traslada a un pequeño...

    Director: Jesse Harris

    Género: Crimen

    Actores: Olivia Trujillo

descargar Django sin Cadenas (2012) [Multi-Doblaje] REMUX 1080p Latino Full 1080p 1080p gratis, Django sin Cadenas (2012) [Multi-Doblaje] REMUX 1080p Latino Full 1080p mega 1 link, Django sin Cadenas (2012) [Multi-Doblaje] REMUX 1080p Latino Full 1080p pelicula completa, descargar Django sin Cadenas (2012) [Multi-Doblaje] REMUX 1080p Latino Full 1080p gratis en mega.

Django sin Cadenas (2012) [Multi-Doblaje] REMUX 1080p Latino pelicula full hd, Django sin Cadenas (2012) [Multi-Doblaje] REMUX 1080p Latino mega latino, Django sin Cadenas (2012) [Multi-Doblaje] REMUX 1080p Latino 4k latino, Django sin Cadenas (2012) [Multi-Doblaje] REMUX 1080p Latino pelicula completa, Django sin Cadenas (2012) [Multi-Doblaje] REMUX 1080p Latino descargar gratis, descargar Django sin Cadenas (2012) [Multi-Doblaje] REMUX 1080p Latino pelicula latino, Django sin Cadenas (2012) [Multi-Doblaje] REMUX 1080p Latino 1 link mega, Django sin Cadenas (2012) [Multi-Doblaje] REMUX 1080p Latino 1 link google drive, Django sin Cadenas (2012) [Multi-Doblaje] REMUX 1080p Latino hd 1080p latino.
Comentarios 0