Divórcio (2017) WEBDL 1080p Latino

903 vistas
1 estrella2 estrellas3 estrellas4 estrellas5 estrellas (Ninguna valoración todavía)
Cargando…

Información de Divórcio (2017) WEBDL 1080p Latino

Datos de la película

  • Calidad: WEBDL
  • Audio: Se especifica abajo de la Sinopsis
  • Subtitulos: No
  • Resolución: 1920x1080p
  • Formato: MKV
  • Codec: H.264
  • Encoder: WebDL
  • Mediainfo: Clic para Mostrar Datos Ver
  • Divorcio (2017) Web-DL 1080p Latino.mkv
    Format                      : Matroska
    Format version              : Version 4 / Version 2
    File size                   : 3.21 GiB
    Duration                    : 1 h 44 min
    Overall bit rate            : 4 382 kb/s
    Movie name                  : CinemaniaHDD.Net
    Encoded date                : UTC 2018-10-12 01:58:01
    Writing application         : mkvmerge v25.0.0 ('Prog Noir') 64-bit
    Writing library             : libebml v1.3.6 + libmatroska v1.4.9

    Video
    ID                          : 1
    Format                      : AVC
    Format/Info                 : Advanced Video Codec
    Format profile              : [email protected]
    Format settings             : CABAC / 2 Ref Frames
    Format settings, CABAC      : Yes
    Format settings, RefFrames  : 2 frames
    Muxing mode                 : Container [email protected]
    Codec ID                    : V_MPEG4/ISO/AVC
    Duration                    : 1 h 44 min
    Bit rate                    : 3 995 kb/s
    Width                       : 1 920 pixels
    Height                      : 1 080 pixels
    Display aspect ratio        : 16:9
    Frame rate mode             : Constant
    Frame rate                  : 30.000 FPS
    Color space                 : YUV
    Chroma subsampling          : 4:2:0
    Bit depth                   : 8 bits
    Scan type                   : Progressive
    Bits/(Pixel*Frame)          : 0.064
    Stream size                 : 2.92 GiB (91%)
    Title                       : HD1080p [Web-DL]
    Default                     : Yes
    Forced                      : No

    Audio #1
    ID                          : 2
    Format                      : AC-3
    Format/Info                 : Audio Coding 3
    Format settings, Endianness : Big
    Codec ID                    : A_AC3
    Duration                    : 1 h 44 min
    Bit rate mode               : Constant
    Bit rate                    : 256 kb/s
    Channel(s)                  : 2 channels
    Channel positions           : Front: L R
    Sampling rate               : 48.0 kHz
    Frame rate                  : 31.250 FPS (1536 SPF)
    Bit depth                   : 16 bits
    Compression mode            : Lossy
    Delay relative to video     : -33 ms
    Stream size                 : 192 MiB (6%)
    Title                       : AC3_2.0_Itunes_Esp
    Language                    : Spanish
    Service kind                : Complete Main
    Default                     : Yes
    Forced                      : No

    Audio #2
    ID                          : 3
    Format                      : AAC
    Format/Info                 : Advanced Audio Codec
    Format profile              : LC
    Codec ID                    : A_AAC-2
    Duration                    : 1 h 44 min
    Bit rate                    : 128 kb/s
    Channel(s)                  : 2 channels
    Channel positions           : Front: L R
    Sampling rate               : 44.1 kHz
    Frame rate                  : 43.066 FPS (1024 SPF)
    Compression mode            : Lossy
    Delay relative to video     : -33 ms
    Stream size                 : 95.8 MiB (3%)
    Title                       : AAC_2.0_Web-DL_Por
    Language                    : Portuguese
    Default                     : No
    Forced                      : No

  • Peso: 3.20 GiB

Sinopsis

Divórcio (2017) WEBDL 1080p Latino; Mega, google Drive. Diana regresa a la ciudad de Nueva York después de unos años en el extranjero y encuentra el apartamento perfecto en Brooklyn para un nuevo comienzo. Durante la primera noche en su nuevo hogar, descubre que su exnovio Ben vive en el apartamento debajo del suyo. Después de una reunión incómoda, Diana proclama sus intenciones de una amistad genuina. Pero a medida que se abren viejas heridas, tanto Diana como Ben se ven obligados a enfrentar la verdadera naturaleza de sus sentimientos.

Audio Latino AC3 2.0 Itunes – Audio Portugués AAC 2.0 Web-DL

Ficha técnica

  • Titulo original: Divórcio
  • Fecha de lanzamiento: 21-09-2017 (Brazil)
  • Director: Pedro Amorim
  • Género: Comedia, HD 1080p
  • Puntuación: 0.0 0 votos
  • Duración:
    1h 44m

Video trailer de la película

Enlaces de descarga

Rip de Bluray

Descargar Divórcio (2017) WEBDL 1080p Latino




Aportes de DPeliculasHDmega la pass es:dpeliculashdmega.org Aportes de CinemaniaHD la pass es:cinemaniahdd.com
Guardado en : Comedia , HD 1080p

Películas relacionadas

  • Arizona (2018) 1080p Latino

    2018
    Arizona (2018) 1080p Latino

    5.0 1h 25m 2018

    Ambientada en medio de la crisis de la vivienda de 2009, esta oscura y cómica historia sigue a Cassie...

    Director: Mara Herdmann

    Género: Comedia

    Actores: Vivian Nesbitt

  • Si La Colonia Hablara (2018) 1080p Subtitulado

    2018
    Si La Colonia Hablara (2018) 1080p Subtitulado

    0.0 1h 57m 2018

    Descargar Si La Colonia Hablara (2018) 1080p Subtitulado, Mega, Google Drive. Basada en la novela de...

    Director: Barry Jenkins

    Género: Crimen

    Actores: Teyonah Parris

Comentarios 0