×

¿Problemas para descargar con Mozilla, EDGE? Deshabilita la opción "Abrir vinculos en una pestaña nueva" tal como lo muestra ésta imagen.

Divergent (2014) REMUX 4K HDR Latino – CMHDD

243 vistas

Información de Divergent (2014) REMUX 4K HDR Latino – CMHDD

Datos de la película

  • Calidad: 4K HDR
  • Audio: Español Latino DTS 5.1 BLURAY - Ingles DTS-HD Master 7.1 BLURAY
  • Subtitulos: Español Latino PGS
  • Resolución: 3840x2160p
  • Formato: MKV
  • Codec: H.264
  • Encoder: Dracarys
  • Mediainfo: Clic para Mostrar Datos Ver
  • Format                      : Matroska
    Format version              : Version 4
    File size                   : 55.5 GiB
    Duration                    : 2 h 19 min
    Overall bit rate mode       : Variable
    Overall bit rate            : 56.9 Mb/s
    Movie name                  : Divergent (2014) REMUX 4K HDR Latino - CMHDD
    Encoded date                : UTC 2023-04-14 19:58:13
    Writing application         : mkvmerge v47.0.0 ('Black Flag') 64-bit
    Writing library             : libebml v1.3.10 + libmatroska v1.5.2

    Video
    ID                          : 1
    ID in the original source m : 4113 (0x1011)
    Format                      : HEVC
    Format/Info                 : High Efficiency Video Coding
    Format profile              : Main 10@L5.1@High
    HDR format                  : SMPTE ST 2086, HDR10 compatible
    Codec ID                    : V_MPEGH/ISO/HEVC
    Duration                    : 2 h 19 min
    Bit rate                    : 51.0 Mb/s
    Width                       : 3 840 pixels
    Height                      : 2 160 pixels
    Display aspect ratio        : 16:9
    Frame rate mode             : Constant
    Frame rate                  : 23.976 (24000/1001) FPS
    Color space                 : YUV
    Chroma subsampling          : 4:2:0 (Type 2)
    Bit depth                   : 10 bits
    Bits/(Pixel*Frame)          : 0.256
    Stream size                 : 49.7 GiB (90%)
    Writing library             : ATEME Titan KFE 3.7.3 (4.7.3.1003)
    Language                    : English
    Default                     : No
    Forced                      : No
    Color range                 : Limited
    Color primaries             : BT.2020
    Transfer characteristics    : PQ
    Matrix coefficients         : BT.2020 non-constant
    Mastering display color pri : Display P3
    Mastering display luminance : min: 0.0050 cd/m2, max: 4000 cd/m2
    Original source medium      : Blu-ray

    Audio #1
    ID                          : 2
    ID in the original source m : 4352 (0x1100)
    Format                      : DTS XLL X
    Format/Info                 : Digital Theater Systems
    Commercial name             : DTS-HD Master Audio
    Codec ID                    : A_DTS
    Duration                    : 2 h 19 min
    Bit rate mode               : Variable
    Bit rate                    : 4 511 kb/s
    Channel(s)                  : 8 channels
    Channel(s)_Original         : Object Based
    ChannelLayout_Original      : Object Based
    Sampling rate               : 48.0 kHz
    Frame rate                  : 93.750 FPS (512 SPF)
    Bit depth                   : 24 bits
    Stream size                 : 4.40 GiB (8%)
    Title                       : DTS-X 7.1
    Language                    : English
    Default                     : No
    Forced                      : No
    Original source medium      : Blu-ray

    Audio #2
    ID                          : 3
    Format                      : AC-3
    Format/Info                 : Audio Coding 3
    Commercial name             : Dolby Digital
    Codec ID                    : A_AC3
    Duration                    : 2 h 19 min
    Bit rate mode               : Constant
    Bit rate                    : 640 kb/s
    Channel(s)                  : 6 channels
    Channel layout              : L R C LFE Ls Rs
    Sampling rate               : 48.0 kHz
    Frame rate                  : 31.250 FPS (1536 SPF)
    Compression mode            : Lossy
    Stream size                 : 639 MiB (1%)
    Title                       : DD 5.1
    Language                    : English
    Service kind                : Complete Main
    Default                     : No
    Forced                      : No

    Audio #3
    ID                          : 4
    ID in the original source m : 4353 (0x1101)
    Format                      : DTS
    Format/Info                 : Digital Theater Systems
    Codec ID                    : A_DTS
    Duration                    : 2 h 19 min
    Bit rate mode               : Constant
    Bit rate                    : 768 kb/s
    Channel(s)                  : 6 channels
    Channel layout              : C L R Ls Rs LFE
    Sampling rate               : 48.0 kHz
    Frame rate                  : 93.750 FPS (512 SPF)
    Bit depth                   : 24 bits
    Compression mode            : Lossy
    Stream size                 : 767 MiB (1%)
    Title                       : DTS 5.1
    Language                    : Spanish
    Default                     : Yes
    Forced                      : No
    Original source medium      : Blu-ray

    Text #1
    ID                          : 5
    ID in the original source m : 4769 (0x12A1)
    Format                      : PGS
    Muxing mode                 : zlib
    Codec ID                    : S_HDMV/PGS
    Codec ID/Info               : Picture based subtitle format used on BDs/HD-DVDs
    Duration                    : 2 h 9 min
    Bit rate                    : 23.2 kb/s
    Frame rate                  : 0.315 FPS
    Count of elements           : 2446
    Stream size                 : 21.4 MiB (0%)
    Language                    : Spanish
    Default                     : No
    Forced                      : No
    Original source medium      : Blu-ray

    Text #2
    ID                          : 6
    ID in the original source m : 4769 (0x12A1)
    Format                      : PGS
    Muxing mode                 : zlib
    Codec ID                    : S_HDMV/PGS
    Codec ID/Info               : Picture based subtitle format used on BDs/HD-DVDs
    Duration                    : 2 s 502 ms
    Bit rate                    : 46.4 kb/s
    Frame rate                  : 0.799 FPS
    Count of elements           : 2
    Stream size                 : 14.2 KiB (0%)
    Title                       : FORCED
    Language                    : Spanish
    Default                     : Yes
    Forced                      : No
    Original source medium      : Blu-ray

    Menu
    00:00:00.000                : en:Chapter 01
    00:07:57.226                : en:Chapter 02
    00:15:29.595                : en:Chapter 03
    00:23:31.034                : en:Chapter 04
    00:33:56.909                : en:Chapter 05
    00:38:52.288                : en:Chapter 06
    00:44:23.869                : en:Chapter 07
    00:53:37.088                : en:Chapter 08
    01:00:02.390                : en:Chapter 09
    01:06:31.779                : en:Chapter 10
    01:13:19.019                : en:Chapter 11
    01:20:07.844                : en:Chapter 12
    01:28:41.149                : en:Chapter 13
    01:35:54.665                : en:Chapter 14
    01:46:19.081                : en:Chapter 15
    01:57:54.067                : en:Chapter 16

  • Peso: 55.5 GiB

Sinopsis

«Divergente» es la historia de una sociedad que se divide en cinco categorías: Verdad, Abnegación, Osadía, Cordialidad y Erudición. Todos los miembros de esta sociedad tienen que elegir a una edad temprana, los dieciséis años, a qué bando creen pertenecer, atendiendo a sus virtudes personales más destacadas. En este dilema se encuentra la protagonista, Beatrice, que sorprende a todos sus allegados y amigos con la decisión que toma. Beatrice, que pasa a llamarse más tarde Tris, tiene que buscar su lugar adecuado, pero ella no es como el resto. Guarda un secreto que podría ser definitivo para mantener el orden social descrito y también para salvar su propia vida.

Ficha técnica

Video trailer de la película

Enlaces de descarga

Rip de Bluray

Descargar Divergent (2014) REMUX 4K HDR Latino – CMHDD


Aportes de DPeliculasHDmega la pass es:dpeliculashdmega.org Aportes de CinemaniaHD la pass es:cinemaniahdd.com Aportes recientes:cinemaniahdd.net
Guardado en : Acción , Aventura , Ciencia ficción

Películas relacionadas

  • The Lego Movie (2014) REMUX 4K HDR Latino – CMHDD

    The Lego Movie (2014) REMUX 4K HDR Latino – CMHDD

    2014
    The Lego Movie (2014) REMUX 4K HDR Latino – CMHDD

    1h 40m 2014

    Película basada en los clásicos juguetes LEGO. Emmet, el protagonista de la película, trabaja como...

    Director: Vernessa Cook

    Género: Animación

    Actores: Will Forte

  • The Lego Movie (2014) REMUX 1080p Latino – CMHDD

    The Lego Movie (2014) REMUX 1080p Latino – CMHDD

    2014
    The Lego Movie (2014) REMUX 1080p Latino – CMHDD

    1h 40m 2014

    Película basada en los clásicos juguetes LEGO. Emmet, el protagonista de la película, trabaja como...

    Director: Vernessa Cook

    Género: Animación

    Actores: Will Forte

  • Familia Nacional (2023) WEB-DL 1080p Latino

    Familia Nacional (2023) WEB-DL 1080p Latino

    2023
    Familia Nacional (2023) WEB-DL 1080p Latino

    1h 43m 2023

    Descargar Familia Nacional (2023) WEB-DL 1080p Latino. Don Poli es el patriarca de una familia disfuncional...

    Director: Marcelo Tobar

    Género: Acción

    Actores: Tadeo Tovar

descargar Divergent (2014) REMUX 4K HDR Latino – CMHDD 4K HDR 1080p gratis, Divergent (2014) REMUX 4K HDR Latino – CMHDD 4K HDR mega 1 link, Divergent (2014) REMUX 4K HDR Latino – CMHDD 4K HDR pelicula completa, descargar Divergent (2014) REMUX 4K HDR Latino – CMHDD 4K HDR gratis en mega.

Divergent (2014) REMUX 4K HDR Latino – CMHDD pelicula full hd, Divergent (2014) REMUX 4K HDR Latino – CMHDD mega latino, Divergent (2014) REMUX 4K HDR Latino – CMHDD 4k latino, Divergent (2014) REMUX 4K HDR Latino – CMHDD pelicula completa, Divergent (2014) REMUX 4K HDR Latino – CMHDD descargar gratis, descargar Divergent (2014) REMUX 4K HDR Latino – CMHDD pelicula latino, Divergent (2014) REMUX 4K HDR Latino – CMHDD 1 link mega, Divergent (2014) REMUX 4K HDR Latino – CMHDD 1 link google drive, Divergent (2014) REMUX 4K HDR Latino – CMHDD hd 1080p latino.
Comentarios 0