×

¿Problemas para descargar con Mozilla, EDGE? Deshabilita la opción "Abrir vinculos en una pestaña nueva" tal como lo muestra ésta imagen.

Sector 9 (2009) 1080p Latino

376 vistas

Información de Sector 9 (2009) 1080p Latino

Datos de la película

  • Calidad: 1080p
  • Audio: Español Latino AC3 5.1 BLURAY - Ingles AC3 5.1 BLURAY
  • Subtitulos: Español Latino SRT - Ingles SRT
  • Resolución: 1920x1038p
  • Formato: MKV
  • Codec: H.264
  • Encoder: CinefiloCool
  • Mediainfo: Clic para Mostrar Datos Ver
  • Sector 9 (2009) 1080p Latino-CMHDD.mkv
    Format                      : Matroska
    Format version              : Version 4
    File size                   : 3.60 GiB
    Duration                    : 1 h 52 min
    Overall bit rate            : 4 589 kb/s
    Movie name                  : District 9 (2009) CinemaniaHDD.Net
    Encoded date                : UTC 2020-06-17 02:43:26
    Writing application         : mkvmerge v46.0.0 ('No Deeper Escape') 64-bit
    Writing library             : libebml v1.3.10 + libmatroska v1.5.2
    Attachments                 : CINEMANIAHD.png

    Video
    ID                          : 1
    Format                      : AVC
    Format/Info                 : Advanced Video Codec
    Format profile              : High@L4.1
    Format settings             : CABAC / 4 Ref Frames
    Format settings, CABAC      : Yes
    Format settings, Reference  : 4 frames
    Codec ID                    : V_MPEG4/ISO/AVC
    Duration                    : 1 h 52 min
    Bit rate                    : 3 500 kb/s
    Width                       : 1 920 pixels
    Height                      : 1 038 pixels
    Display aspect ratio        : 1.85:1
    Frame rate mode             : Constant
    Frame rate                  : 23.976 (24000/1001) FPS
    Color space                 : YUV
    Chroma subsampling          : 4:2:0
    Bit depth                   : 8 bits
    Scan type                   : Progressive
    Bits/(Pixel*Frame)          : 0.073
    Stream size                 : 2.74 GiB (76%)
    Title                       : HD1080p [CinemaniaHDD]
    Writing library             : x264 core 157 r2935 545de2f
    Encoding settings           : cabac=1 / ref=4 / deblock=1:-1:-1 / analyse=0x3:0x133 / me=umh / subme=9 / psy=1 / psy_rd=1.00:0.15 / mixed_ref=1 / me_range=16 / chroma_me=1 / trellis=2 / 8x8dct=1 / cqm=0 / deadzone=21,11 / fast_pskip=1 / chroma_qp_offset=-3 / threads=24 / lookahead_threads=2 / sliced_threads=0 / nr=0 / decimate=1 / interlaced=0 / bluray_compat=0 / constrained_intra=0 / bframes=3 / b_pyramid=2 / b_adapt=2 / b_bias=0 / direct=3 / weightb=1 / open_gop=0 / weightp=2 / keyint=240 / keyint_min=24 / scenecut=40 / intra_refresh=0 / rc_lookahead=60 / rc=2pass / mbtree=1 / bitrate=3500 / ratetol=1.0 / qcomp=0.60 / qpmin=0 / qpmax=69 / qpstep=4 / cplxblur=20.0 / qblur=0.5 / vbv_maxrate=62500 / vbv_bufsize=78125 / nal_hrd=none / filler=0 / ip_ratio=1.40 / aq=1:1.00
    Default                     : Yes
    Forced                      : No
    Color range                 : Limited
    Color primaries             : BT.709
    Transfer characteristics    : BT.709
    Matrix coefficients         : BT.709

    Audio #1
    ID                          : 2
    ID in the original source m : 4354 (0x1102)
    Format                      : AC-3
    Format/Info                 : Audio Coding 3
    Commercial name             : Dolby Digital
    Codec ID                    : A_AC3
    Duration                    : 1 h 52 min
    Bit rate mode               : Constant
    Bit rate                    : 640 kb/s
    Channel(s)                  : 6 channels
    Channel layout              : L R C LFE Ls Rs
    Sampling rate               : 48.0 kHz
    Frame rate                  : 31.250 FPS (1536 SPF)
    Compression mode            : Lossy
    Delay relative to video     : -5 ms
    Stream size                 : 514 MiB (14%)
    Title                       : Español Latino [CinemaniaHDD]
    Language                    : Spanish
    Service kind                : Complete Main
    Default                     : Yes
    Forced                      : No
    Original source medium      : Blu-ray

    Audio #2
    ID                          : 3
    Format                      : AC-3
    Format/Info                 : Audio Coding 3
    Commercial name             : Dolby Digital
    Codec ID                    : A_AC3
    Duration                    : 1 h 52 min
    Bit rate mode               : Constant
    Bit rate                    : 448 kb/s
    Channel(s)                  : 6 channels
    Channel layout              : L R C LFE Ls Rs
    Sampling rate               : 48.0 kHz
    Frame rate                  : 31.250 FPS (1536 SPF)
    Compression mode            : Lossy
    Delay relative to video     : -5 ms
    Stream size                 : 360 MiB (10%)
    Title                       : Ingles [CinemaniaHDD]
    Language                    : English
    Service kind                : Complete Main
    Default                     : No
    Forced                      : No

    Text #1
    ID                          : 4
    Format                      : UTF-8
    Codec ID                    : S_TEXT/UTF8
    Codec ID/Info               : UTF-8 Plain Text
    Duration                    : 1 h 35 min
    Bit rate                    : 5 b/s
    Count of elements           : 165
    Stream size                 : 3.55 KiB (0%)
    Title                       : Forzados-SRT [CinemaniaHDD]
    Language                    : Spanish
    Default                     : Yes
    Forced                      : No

    Text #2
    ID                          : 5
    Format                      : UTF-8
    Codec ID                    : S_TEXT/UTF8
    Codec ID/Info               : UTF-8 Plain Text
    Duration                    : 1 h 43 min
    Bit rate                    : 58 b/s
    Count of elements           : 1279
    Stream size                 : 44.4 KiB (0%)
    Title                       : Español-SRT [CinemaniaHDD]
    Language                    : Spanish
    Default                     : No
    Forced                      : No

    Text #3
    ID                          : 6
    Format                      : UTF-8
    Codec ID                    : S_TEXT/UTF8
    Codec ID/Info               : UTF-8 Plain Text
    Duration                    : 1 h 43 min
    Bit rate                    : 74 b/s
    Count of elements           : 1427
    Stream size                 : 56.8 KiB (0%)
    Title                       : Ingles-SRT [CinemaniaHDD]
    Language                    : English
    Default                     : No
    Forced                      : No

    Menu
    00:00:00.000                : en:Chapter 01
    00:06:22.340                : en:Chapter 02
    00:13:25.346                : en:Chapter 03
    00:20:33.357                : en:Chapter 04
    00:27:08.752                : en:Chapter 05
    00:34:13.718                : en:Chapter 06
    00:41:57.932                : en:Chapter 07
    00:47:01.944                : en:Chapter 08
    00:54:07.953                : en:Chapter 09
    01:00:00.597                : en:Chapter 10
    01:08:25.976                : en:Chapter 11
    01:13:37.871                : en:Chapter 12
    01:21:02.190                : en:Chapter 13
    01:26:40.361                : en:Chapter 14
    01:33:41.365                : en:Chapter 15
    01:38:44.501                : en:Chapter 16

  • Peso: 3.60 GiB

Sinopsis

Descargar Sector 9 (2009) 1080p Latino. Tras la llegada de una enorme nave espacial extraterrestre a Johannesburgo (Sudáfrica), a los alienígenas recién llegados a la Tierra se les obligó a vivir en condiciones penosas como «refugiados», en una especie de campo de concentración construido en las afueras la ciudad. Todo empezó unos veinte años atrás, cuando los extraterrestres tomaron el primer contacto con nuestro planeta. Los humanos esperaban un ataque hostil, o un gran avance tecnológico de la raza alienígena. Pero nada de ello sucedió. Los propios extraterrestres eran refugiados de su propio mundo. Sin saber bien que hacer, se confinó a los alienígenas en un campo de refugiados, el «Distrito 9», hasta que las naciones del mundo decidieran qué hacer ante la nueva y extraña situación. Pero el tiempo pasó…

Ficha técnica

Video trailer de la película

Enlaces de descarga

Rip de Bluray

Descargar Sector 9 (2009) 1080p Latino




Aportes de DPeliculasHDmega la pass es:dpeliculashdmega.org Aportes de CinemaniaHD la pass es:cinemaniahdd.com
Guardado en : Ciencia ficción , HD 1080p

Películas relacionadas

descargar Sector 9 (2009) 1080p Latino 1080p 1080p gratis, Sector 9 (2009) 1080p Latino 1080p mega 1 link, Sector 9 (2009) 1080p Latino 1080p pelicula completa, descargar Sector 9 (2009) 1080p Latino 1080p gratis en mega.

Sector 9 (2009) 1080p Latino pelicula full hd, Sector 9 (2009) 1080p Latino mega latino, Sector 9 (2009) 1080p Latino 4k latino, Sector 9 (2009) 1080p Latino pelicula completa, Sector 9 (2009) 1080p Latino descargar gratis, descargar Sector 9 (2009) 1080p Latino pelicula latino, Sector 9 (2009) 1080p Latino 1 link mega, Sector 9 (2009) 1080p Latino 1 link google drive, Sector 9 (2009) 1080p Latino hd 1080p latino.
Comentarios 0