×

¿Problemas para descargar con Mozilla, EDGE? Deshabilita la opción "Abrir vinculos en una pestaña nueva" tal como lo muestra ésta imagen.

Acoso Sexual (1994) REMUX 1080p Latino

303 vistas

Información de Acoso Sexual (1994) REMUX 1080p Latino

Datos de la película

  • Calidad: Full 1080p
  • Audio: Español Latino AC3 2.0 BLURAY - Ingles DTS 5.1 BLURAY
  • Subtitulos: Español Latino PGS - Ingles PGS
  • Resolución: 1920x1080p
  • Formato: MKV
  • Codec: H.264
  • Encoder: CinefiloCool
  • Mediainfo: Clic para Mostrar Datos Ver
  • Acoso Sexual (1994) REMUX 1080p Latino-CMHDD.mkv
    Format                      : Matroska
    Format version              : Version 4
    File size                   : 26.3 GiB
    Duration                    : 2 h 8 min
    Overall bit rate mode       : Variable
    Overall bit rate            : 29.3 Mb/s
    Movie name                  : Disclosure (1994) CinemaniaHDD.Net
    Encoded date                : UTC 2023-03-09 04:58:25
    Writing application         : mkvmerge v56.1.0 ('My Friend') 64-bit
    Writing library             : libebml v1.4.2 + libmatroska v1.6.4
    Attachments                 : CINEMANIAHD.png

    Video
    ID                          : 1
    Format                      : AVC
    Format/Info                 : Advanced Video Codec
    Format profile              : High@L4.1
    Format settings             : CABAC / 2 Ref Frames
    Format settings, CABAC      : Yes
    Format settings, Reference  : 2 frames
    Codec ID                    : V_MPEG4/ISO/AVC
    Duration                    : 2 h 8 min
    Bit rate mode               : Variable
    Bit rate                    : 25.0 Mb/s
    Width                       : 1 920 pixels
    Height                      : 1 080 pixels
    Display aspect ratio        : 16:9
    Frame rate mode             : Constant
    Frame rate                  : 23.976 (24000/1001) FPS
    Color space                 : YUV
    Chroma subsampling          : 4:2:0
    Bit depth                   : 8 bits
    Scan type                   : Progressive
    Bits/(Pixel*Frame)          : 0.502
    Stream size                 : 22.4 GiB (85%)
    Title                       : REMUX HD1080p [CinemaniaHDD]
    Language                    : English
    Default                     : Yes
    Forced                      : Yes

    Audio #1
    ID                          : 2
    Format                      : AC-3
    Format/Info                 : Audio Coding 3
    Commercial name             : Dolby Digital
    Codec ID                    : A_AC3
    Duration                    : 2 h 8 min
    Bit rate mode               : Constant
    Bit rate                    : 192 kb/s
    Channel(s)                  : 2 channels
    Channel layout              : L R
    Sampling rate               : 48.0 kHz
    Frame rate                  : 31.250 FPS (1536 SPF)
    Compression mode            : Lossy
    Stream size                 : 176 MiB (1%)
    Title                       : Español Latino [CinemaniaHDD]
    Language                    : Spanish
    Service kind                : Complete Main
    Default                     : Yes
    Forced                      : Yes

    Audio #2
    ID                          : 3
    Format                      : DTS XLL
    Format/Info                 : Digital Theater Systems
    Commercial name             : DTS-HD Master Audio
    Codec ID                    : A_DTS
    Duration                    : 2 h 8 min
    Bit rate mode               : Variable
    Bit rate                    : 4 119 kb/s
    Channel(s)                  : 6 channels
    Channel layout              : C L R Ls Rs LFE
    Sampling rate               : 48.0 kHz
    Frame rate                  : 93.750 FPS (512 SPF)
    Bit depth                   : 24 bits
    Compression mode            : Lossless
    Stream size                 : 3.69 GiB (14%)
    Title                       : Ingles [CinemaniaHDD]
    Language                    : English
    Default                     : No
    Forced                      : No

    Text #1
    ID                          : 4
    Format                      : PGS
    Muxing mode                 : zlib
    Codec ID                    : S_HDMV/PGS
    Codec ID/Info               : Picture based subtitle format used on BDs/HD-DVDs
    Duration                    : 2 h 7 min
    Bit rate                    : 41.6 kb/s
    Count of elements           : 3530
    Stream size                 : 38.1 MiB (0%)
    Title                       : Español-PGS [CinemaniaHDD]
    Language                    : Spanish
    Default                     : No
    Forced                      : No

    Text #2
    ID                          : 5
    Format                      : PGS
    Muxing mode                 : zlib
    Codec ID                    : S_HDMV/PGS
    Codec ID/Info               : Picture based subtitle format used on BDs/HD-DVDs
    Duration                    : 2 h 7 min
    Bit rate                    : 44.9 kb/s
    Count of elements           : 3622
    Stream size                 : 41.0 MiB (0%)
    Title                       : Ingles [CinemaniaHDD]
    Language                    : English
    Default                     : No
    Forced                      : No

    Text #3
    ID                          : 6
    Format                      : UTF-8
    Codec ID                    : S_TEXT/UTF8
    Codec ID/Info               : UTF-8 Plain Text
    Duration                    : 2 h 4 min
    Bit rate                    : 1 b/s
    Count of elements           : 35
    Stream size                 : 1.04 KiB (0%)
    Title                       : Forzados-SRT [CinemaniaHDD]
    Language                    : Spanish
    Default                     : Yes
    Forced                      : Yes

    Text #4
    ID                          : 7
    Format                      : UTF-8
    Codec ID                    : S_TEXT/UTF8
    Codec ID/Info               : UTF-8 Plain Text
    Duration                    : 2 h 7 min
    Bit rate                    : 73 b/s
    Count of elements           : 1777
    Stream size                 : 68.7 KiB (0%)
    Title                       : Español-SRT [CinemaniaHDD]
    Language                    : Spanish
    Default                     : No
    Forced                      : No

    Menu
    00:00:00.000                : "Daddy's Getting a Promotion" (Credits)
    00:05:05.429                : No more room
    00:06:29.389                : Falling behind in Malaysia
    00:08:57.537                : Rumor to leak to bad news
    00:13:19.048                : "Sanders and I go way back"
    00:15:38.646                : Between men and women
    00:17:53.070                : The new vice-president
    00:21:07.349                : An after-hours invitation
    00:23:56.685                : "It's different now"
    00:27:40.699                : "Do you have a problem working for me?"
    00:28:42.804                : All the power
    00:30:55.812                : "Is that what you want?"
    00:32:49.801                : "Get back here"
    00:34:43.081                : A victim's scars
    00:38:39.317                : Nice suit
    00:39:44.215                : Tom gets the message
    00:44:38.425                : This isn't an inquisition
    00:46:57.397                : Seated on a bomb
    00:47:43.277                : Referral from a friend
    00:49:44.856                : Getting into the game
    00:53:15.233                : He likes his secrets
    00:54:39.025                : It's starting. "We'll see"
    00:59:15.093                : Saved by old-fasioned Susan
    01:03:25.092                : "When did I have the power?"
    01:05:36.223                : Testimony of an angry man
    01:11:02.091                : Testimony of a wronged woman
    01:14:35.304                : A bottle of wine
    01:17:54.586                : The fact of the matter
    01:18:50.350                : Among friends?
    01:21:56.620                : "Things have gone too far"
    01:23:32.674                : A patter of behaviour
    01:27:00.256                : On Meredith's side
    01:28:06.948                : On tape: a woman in power
    01:35:19.921                : It's not over
    01:38:39.662                : A setup
    01:41:05.642                : Breaking in
    01:45:23.859                : Racing against deletion
    01:50:20.155                : Hold the phone
    01:52:15.603                : Readying for battle
    01:55:05.315                : Tom takes the floor
    01:57:21.409                : The problem sitting right in front of us
    01:59:41.674                : Who set up whom?
    02:01:32.827                : An extraordinary woman
    02:04:50.566                : End Credits

  • Peso: 26.3 GiB

Sinopsis

Descargar Acoso Sexual (1994) REMUX 1080p Latino. Tom Sanders es un maduro y atractivo ejecutivo que trabaja en una empresa de alta tecnología y que está a punto de ser ascendido. Sin embargo, en una semana crucial para su vida, verá sus aspiraciones rotas cuando, en lugar de él, es nombrada para el puesto Meredith Jonson, una antigua novia suya que ahora es una ambiciosa ejecutiva.

Ficha técnica

Video trailer de la película

Enlaces de descarga

Rip de Bluray

Descargar Acoso Sexual (1994) REMUX 1080p Latino


Aportes de DPeliculasHDmega la pass es:dpeliculashdmega.org Aportes de CinemaniaHD la pass es:cinemaniahdd.com Aportes recientes:cinemaniahdd.net
Guardado en : Crimen , Drama , Remux , Suspenso

Películas relacionadas

descargar Acoso Sexual (1994) REMUX 1080p Latino Full 1080p 1080p gratis, Acoso Sexual (1994) REMUX 1080p Latino Full 1080p mega 1 link, Acoso Sexual (1994) REMUX 1080p Latino Full 1080p pelicula completa, descargar Acoso Sexual (1994) REMUX 1080p Latino Full 1080p gratis en mega.

Acoso Sexual (1994) REMUX 1080p Latino pelicula full hd, Acoso Sexual (1994) REMUX 1080p Latino mega latino, Acoso Sexual (1994) REMUX 1080p Latino 4k latino, Acoso Sexual (1994) REMUX 1080p Latino pelicula completa, Acoso Sexual (1994) REMUX 1080p Latino descargar gratis, descargar Acoso Sexual (1994) REMUX 1080p Latino pelicula latino, Acoso Sexual (1994) REMUX 1080p Latino 1 link mega, Acoso Sexual (1994) REMUX 1080p Latino 1 link google drive, Acoso Sexual (1994) REMUX 1080p Latino hd 1080p latino.
Comentarios 0