×

¿Problemas para descargar con Mozilla, EDGE? Deshabilita la opción "Abrir vinculos en una pestaña nueva" tal como lo muestra ésta imagen.

Dos Picaros Sin Vergüenza (1988) Full HD 1080p Latino

355 vistas

Información de Dos Picaros Sin Vergüenza (1988) Full HD 1080p Latino

Datos de la película

  • Calidad: Full 1080p
  • Audio: Español Latino AC3 2.0 DVD - Ingles DTS 5.1 BLURAY
  • Subtitulos: Español Latino SRT- FORZADOS SRT
  • Resolución: 1920x1080p
  • Formato: MKV
  • Codec: H.264
  • Encoder: CinefiloCool
  • Mediainfo: Clic para Mostrar Datos Ver
  • Dos Picaros Sin Vergüenza (1988) Full HD 1080p Latino-CMHDD.mkv
    Format                      : Matroska
    Format version              : Version 4
    File size                   : 10.7 GiB
    Duration                    : 1 h 50 min
    Overall bit rate            : 13.9 Mb/s
    Movie name                  : Dirty Rotten Scoundrels (1988) CinemaniaHDD.Net
    Encoded date                : UTC 2020-07-07 06:11:17
    Writing application         : mkvmerge v46.0.0 ('No Deeper Escape') 64-bit
    Writing library             : libebml v1.3.10 + libmatroska v1.5.2
    Attachments                 : CINEMANIAHD.png

    Video
    ID                          : 1
    Format                      : AVC
    Format/Info                 : Advanced Video Codec
    Format profile              : High@L4.1
    Format settings             : CABAC / 4 Ref Frames
    Format settings, CABAC      : Yes
    Format settings, Reference  : 4 frames
    Codec ID                    : V_MPEG4/ISO/AVC
    Duration                    : 1 h 50 min
    Bit rate                    : 12.1 Mb/s
    Width                       : 1 920 pixels
    Height                      : 1 080 pixels
    Display aspect ratio        : 16:9
    Frame rate mode             : Constant
    Frame rate                  : 23.976 (24000/1001) FPS
    Color space                 : YUV
    Chroma subsampling          : 4:2:0
    Bit depth                   : 8 bits
    Scan type                   : Progressive
    Bits/(Pixel*Frame)          : 0.243
    Stream size                 : 9.33 GiB (87%)
    Title                       : Full HD1080p [CinemaniaHDD]
    Writing library             : x264 core 157 r2935 545de2f
    Encoding settings           : cabac=1 / ref=4 / deblock=1:0:0 / analyse=0x3:0x133 / me=tesa / subme=11 / psy=1 / psy_rd=1.00:0.00 / mixed_ref=1 / me_range=24 / chroma_me=1 / trellis=2 / 8x8dct=1 / cqm=0 / deadzone=21,11 / fast_pskip=0 / chroma_qp_offset=-2 / threads=24 / lookahead_threads=6 / sliced_threads=0 / nr=0 / decimate=1 / interlaced=0 / bluray_compat=0 / constrained_intra=0 / bframes=16 / b_pyramid=2 / b_adapt=2 / b_bias=0 / direct=3 / weightb=1 / open_gop=0 / weightp=2 / keyint=240 / keyint_min=24 / scenecut=40 / intra_refresh=0 / rc_lookahead=60 / rc=crf / mbtree=1 / crf=20.0 / qcomp=0.60 / qpmin=0 / qpmax=69 / qpstep=4 / vbv_maxrate=62500 / vbv_bufsize=78125 / crf_max=0.0 / nal_hrd=none / filler=0 / ip_ratio=1.40 / aq=1:1.00
    Default                     : Yes
    Forced                      : No
    Color range                 : Limited
    Color primaries             : BT.709
    Transfer characteristics    : BT.709
    Matrix coefficients         : BT.709

    Audio #1
    ID                          : 2
    Format                      : AC-3
    Format/Info                 : Audio Coding 3
    Commercial name             : Dolby Digital
    Codec ID                    : A_AC3
    Duration                    : 1 h 50 min
    Bit rate mode               : Constant
    Bit rate                    : 256 kb/s
    Channel(s)                  : 2 channels
    Channel layout              : L R
    Sampling rate               : 48.0 kHz
    Frame rate                  : 31.250 FPS (1536 SPF)
    Compression mode            : Lossy
    Stream size                 : 202 MiB (2%)
    Title                       : Español Latino [CinemaniaHDD]
    Language                    : Spanish
    Service kind                : Complete Main
    Default                     : Yes
    Forced                      : No

    Audio #2
    ID                          : 3
    Format                      : DTS
    Format/Info                 : Digital Theater Systems
    Codec ID                    : A_DTS
    Duration                    : 1 h 50 min
    Bit rate mode               : Constant
    Bit rate                    : 1 509 kb/s
    Channel(s)                  : 6 channels
    Channel layout              : C L R Ls Rs LFE
    Sampling rate               : 48.0 kHz
    Frame rate                  : 93.750 FPS (512 SPF)
    Bit depth                   : 24 bits
    Compression mode            : Lossy
    Stream size                 : 1.16 GiB (11%)
    Title                       : Ingles [CinemaniaHDD]
    Language                    : English
    Default                     : No
    Forced                      : No

    Text #1
    ID                          : 4
    Format                      : UTF-8
    Codec ID                    : S_TEXT/UTF8
    Codec ID/Info               : UTF-8 Plain Text
    Duration                    : 4 s 0 ms
    Bit rate                    : 50 b/s
    Count of elements           : 1
    Stream size                 : 25.0 Bytes (0%)
    Title                       : Forzados-SRT [CinemaniaHDD]
    Language                    : Spanish
    Default                     : Yes
    Forced                      : No

    Text #2
    ID                          : 5
    Format                      : UTF-8
    Codec ID                    : S_TEXT/UTF8
    Codec ID/Info               : UTF-8 Plain Text
    Duration                    : 1 h 46 min
    Bit rate                    : 52 b/s
    Count of elements           : 1203
    Stream size                 : 40.7 KiB (0%)
    Title                       : Español-SRT [CinemaniaHDD]
    Language                    : Spanish
    Default                     : No
    Forced                      : No

    Text #3
    ID                          : 6
    Format                      : UTF-8
    Codec ID                    : S_TEXT/UTF8
    Codec ID/Info               : UTF-8 Plain Text
    Duration                    : 1 h 46 min
    Bit rate                    : 57 b/s
    Count of elements           : 1302
    Stream size                 : 44.8 KiB (0%)
    Title                       : Ingles-SRT [CinemaniaHDD]
    Language                    : English
    Default                     : No
    Forced                      : No

    Menu
    00:00:00.000                : en:00:00:00.000
    00:08:08.238                : en:00:08:08.238
    00:18:47.126                : en:00:18:47.126
    00:23:50.304                : en:00:23:50.304
    00:29:23.553                : en:00:29:23.553
    00:32:37.747                : en:00:32:37.747
    00:40:01.107                : en:00:40:01.107
    00:47:10.036                : en:00:47:10.036
    00:56:19.459                : en:00:56:19.459
    01:04:24.152                : en:01:04:24.152
    01:10:00.530                : en:01:10:00.530
    01:16:26.749                : en:01:16:26.749
    01:24:23.684                : en:01:24:23.684
    01:28:24.049                : en:01:28:24.049
    01:34:02.178                : en:01:34:02.178
    01:41:53.399                : en:01:41:53.399

  • Peso: 10.7 GiB

Sinopsis

Descargar Dos Picaros Sin Vergüenza (1988) Full HD 1080p Latino. Lawrence Jamieson (Caine), seductor profesional que opera en la Riviera francesa, donde estafa a mujeres ricas, observa con desagrado cómo lo imita Freddy Benson (Martin), un advenedizo que pone en peligro su agradable y fácil modo de ganarse la vida. La competencia entre ambos dará lugar a las más disparatadas aventuras. Divertido filme de timadores. Tiene un remake en 2019 con Rebel Wilson y Anne Hathaway como las protagonistas, el cual no fue del agrado tanto de la audiencia como de la critica.

Ficha técnica

Video trailer de la película

Enlaces de descarga

Rip de Bluray

Descargar Dos Picaros Sin Vergüenza (1988) Full HD 1080p Latino




Aportes de DPeliculasHDmega la pass es:dpeliculashdmega.org Aportes de CinemaniaHD la pass es:cinemaniahdd.com

Películas relacionadas

descargar Dos Picaros Sin Vergüenza (1988) Full HD 1080p Latino Full 1080p 1080p gratis, Dos Picaros Sin Vergüenza (1988) Full HD 1080p Latino Full 1080p mega 1 link, Dos Picaros Sin Vergüenza (1988) Full HD 1080p Latino Full 1080p pelicula completa, descargar Dos Picaros Sin Vergüenza (1988) Full HD 1080p Latino Full 1080p gratis en mega.

Dos Picaros Sin Vergüenza (1988) Full HD 1080p Latino pelicula full hd, Dos Picaros Sin Vergüenza (1988) Full HD 1080p Latino mega latino, Dos Picaros Sin Vergüenza (1988) Full HD 1080p Latino 4k latino, Dos Picaros Sin Vergüenza (1988) Full HD 1080p Latino pelicula completa, Dos Picaros Sin Vergüenza (1988) Full HD 1080p Latino descargar gratis, descargar Dos Picaros Sin Vergüenza (1988) Full HD 1080p Latino pelicula latino, Dos Picaros Sin Vergüenza (1988) Full HD 1080p Latino 1 link mega, Dos Picaros Sin Vergüenza (1988) Full HD 1080p Latino 1 link google drive, Dos Picaros Sin Vergüenza (1988) Full HD 1080p Latino hd 1080p latino.
Comentarios 0