Dios Eres Un Idiota (2020) REMUX 1080p Latino

9 vistas
1 estrella2 estrellas3 estrellas4 estrellas5 estrellas (1 votos, promedio: 5,00 de 5)
Cargando...

Información de Dios Eres Un Idiota (2020) REMUX 1080p Latino

Datos de la película

  • Calidad: Full 1080p
  • Audio: Se especifica abajo de la Sinopsis
  • Subtitulos: Español Latino SRT- FORZADOS SRT
  • Resolución: 1920x1080p
  • Formato: MKV
  • Codec: H.264
  • Encoder: Melkor
  • Mediainfo: Clic para Mostrar Datos Ver
  • Dios Eres Un Idiota (2020) REMUX 1080p Latino.mkv
    Format                      : Matroska
    Format version              : Version 4
    File size                   : 25.7 GiB
    Duration                    : 1 h 37 min
    Overall bit rate mode       : Variable
    Overall bit rate            : 37.7 Mb/s
    Movie name                  : Gott du kannst ein Arsch sein (2020) CinemaniaHDD.Net
    Encoded date                : UTC 2021-09-12 06:06:34
    Writing application         : mkvmerge v56.1.0 ('My Friend') 64-bit
    Writing library             : libebml v1.4.2 + libmatroska v1.6.4
    Attachments                 : CINEMANIAHD.png

    Video
    ID                          : 1
    Format                      : AVC
    Format/Info                 : Advanced Video Codec
    Format profile              : High@L4.1
    Format settings             : CABAC / 4 Ref Frames
    Format settings, CABAC      : Yes
    Format settings, Reference  : 4 frames
    Codec ID                    : V_MPEG4/ISO/AVC
    Duration                    : 1 h 37 min
    Bit rate mode               : Variable
    Bit rate                    : 33.8 Mb/s
    Maximum bit rate            : 38.0 Mb/s
    Width                       : 1 920 pixels
    Height                      : 1 080 pixels
    Display aspect ratio        : 16:9
    Frame rate mode             : Constant
    Frame rate                  : 24.000 FPS
    Color space                 : YUV
    Chroma subsampling          : 4:2:0
    Bit depth                   : 8 bits
    Scan type                   : Progressive
    Bits/(Pixel*Frame)          : 0.680
    Stream size                 : 23.1 GiB (90%)
    Title                       : REMUX HD1080p [CinemaniaHDD]
    Default                     : Yes
    Forced                      : Yes

    Audio #1
    ID                          : 2
    Format                      : AC-3
    Format/Info                 : Audio Coding 3
    Commercial name             : Dolby Digital
    Codec ID                    : A_AC3
    Duration                    : 1 h 37 min
    Bit rate mode               : Constant
    Bit rate                    : 448 kb/s
    Channel(s)                  : 6 channels
    Channel layout              : L R C LFE Ls Rs
    Sampling rate               : 48.0 kHz
    Frame rate                  : 31.250 FPS (1536 SPF)
    Compression mode            : Lossy
    Stream size                 : 313 MiB (1%)
    Title                       : Español Latino [CinemaniaHDD]
    Language                    : Spanish
    Service kind                : Complete Main
    Default                     : Yes
    Forced                      : Yes

    Audio #2
    ID                          : 3
    Format                      : DTS XLL
    Format/Info                 : Digital Theater Systems
    Commercial name             : DTS-HD Master Audio
    Codec ID                    : A_DTS
    Duration                    : 1 h 37 min
    Bit rate mode               : Variable
    Bit rate                    : 3 450 kb/s
    Channel(s)                  : 6 channels
    Channel layout              : C L R Ls Rs LFE
    Sampling rate               : 48.0 kHz
    Frame rate                  : 93.750 FPS (512 SPF)
    Bit depth                   : 24 bits
    Compression mode            : Lossless
    Stream size                 : 2.35 GiB (9%)
    Title                       : Aleman [CinemaniaHDD]
    Language                    : German
    Default                     : No
    Forced                      : No

    Text #1
    ID                          : 4
    Format                      : UTF-8
    Codec ID                    : S_TEXT/UTF8
    Codec ID/Info               : UTF-8 Plain Text
    Duration                    : 1 h 2 min
    Bit rate                    : 0 b/s
    Count of elements           : 4
    Stream size                 : 88.0 Bytes (0%)
    Title                       : Forzados-SRT [CinemaniaHDD]
    Language                    : Spanish
    Default                     : Yes
    Forced                      : Yes

    Text #2
    ID                          : 5
    Format                      : UTF-8
    Codec ID                    : S_TEXT/UTF8
    Codec ID/Info               : UTF-8 Plain Text
    Duration                    : 1 h 32 min
    Bit rate                    : 38 b/s
    Count of elements           : 934
    Stream size                 : 26.4 KiB (0%)
    Title                       : Español-SRT [CinemaniaHDD]
    Language                    : Spanish
    Default                     : No
    Forced                      : No

    Menu
    00:00:00.000                : :Chapter 01
    00:10:43.125                : :Chapter 02
    00:19:44.792                : :Chapter 03
    00:29:53.458                : :Chapter 04
    00:40:16.125                : :Chapter 05
    00:50:25.750                : :Chapter 06
    01:01:54.917                : :Chapter 07
    01:12:03.583                : :Chapter 08
    01:24:08.792                : :Chapter 09
    01:33:17.000                : :Chapter 10

  • Peso: 25.7 GiB

Sinopsis

Descargar Dios Eres Un Idiota (2020) REMUX 1080p Latino. Basado en una historia real. Steffi, de 16 años, acaba de graduarse de la escuela secundaria y está ansiosa por su viaje de estudios a París, donde le ha prometido a su novio Fabián la noche romántica que lo ha hecho esperar desde que comenzaron a salir. Su plan de por vida para unirse a las fuerzas policiales ya está establecido, lo que significa que su vida adulta está a la vuelta de la esquina. En un chequeo médico de rutina, justo antes del viaje a París, Steffi y sus padres se enfrentan a un diagnóstico demoledor: un cáncer incurable con una esperanza de vida de menos de un año. Mientras que su madre Eva inmediatamente intenta proteger a Steffi sin poder hacer nada, por no hablar de un viaje escolar a París y su padre Frank, un sacerdote protestante, cuestiona todo en lo que él alguna vez creyó, pero Steffi está decidida a deshacerse de su destino condenado.

Español Latino AC3 5.1 WebDL – Aleman DTS-HD 5.1 BD

Nota: Disponible Solo Para VIP!!! 🙂

Ficha técnica

Video trailer de la película

Enlaces de descarga

Rip de Bluray

Descargar Dios Eres Un Idiota (2020) REMUX 1080p Latino




Aportes de DPeliculasHDmega la pass es:dpeliculashdmega.org Aportes de CinemaniaHD la pass es:cinemaniahdd.com
Guardado en : Comedia , Drama , Remux , Romance

Películas relacionadas

Dios Eres Un Idiota (2020) REMUX 1080p Latino pelicula full hd, Dios Eres Un Idiota (2020) REMUX 1080p Latino mega latino, Dios Eres Un Idiota (2020) REMUX 1080p Latino 4k latino, Dios Eres Un Idiota (2020) REMUX 1080p Latino pelicula completa, Dios Eres Un Idiota (2020) REMUX 1080p Latino descargar gratis, descargar Dios Eres Un Idiota (2020) REMUX 1080p Latino pelicula latino, Dios Eres Un Idiota (2020) REMUX 1080p Latino 1 link mega, Dios Eres Un Idiota (2020) REMUX 1080p Latino 1 link google drive, Dios Eres Un Idiota (2020) REMUX 1080p Latino hd 1080p latino.
Comentarios 0