×

¿Problemas para descargar con Mozilla, EDGE? Deshabilita la opción "Abrir vinculos en una pestaña nueva" tal como lo muestra ésta imagen.

Dino King: Journey to Fire Mountain (2019) WEB-DL 1080p Latino

2.146 vistas

Información de Dino King: Journey to Fire Mountain (2019) WEB-DL 1080p Latino

Datos de la película

  • Calidad: WEBDL
  • Audio: Español Latino AC3 2.0 WEB-DL - Ingles AC3 5.1 WEB-DL
  • Subtitulos: No
  • Resolución: 1920x1080
  • Formato: MKV
  • Codec: H.264
  • Encoder: cinemaniahdd
  • Mediainfo: Clic para Mostrar Datos Ver
  • Dino King Journey To Fire Mountain (2019) WEB-DL 1080p Latino.mkv
    Format                      : Matroska
    Format version              : Version 4
    File size                   : 3.82 GiB
    Duration                    : 1 h 34 min
    Overall bit rate            : 5 809 kb/s
    Movie name                  : Dino King Journey To Fire Mountain (2019) - CinemaniaHDD.Net
    Encoded date                : UTC 2020-04-02 05:47:26
    Writing application         : mkvmerge v42.0.0 ('Overtime') 64-bit
    Writing library             : libebml v1.3.10 + libmatroska v1.5.2

    Video
    ID                          : 1
    Format                      : AVC
    Format/Info                 : Advanced Video Codec
    Format profile              : High@L4
    Format settings             : CABAC / 4 Ref Frames
    Format settings, CABAC      : Yes
    Format settings, ReFrames   : 4 frames
    Codec ID                    : V_MPEG4/ISO/AVC
    Duration                    : 1 h 34 min
    Bit rate                    : 5 167 kb/s
    Width                       : 1 920 pixels
    Height                      : 1 038 pixels
    Display aspect ratio        : 1.85:1
    Frame rate mode             : Constant
    Frame rate                  : 24.000 FPS
    Color space                 : YUV
    Chroma subsampling          : 4:2:0
    Bit depth                   : 8 bits
    Scan type                   : Progressive
    Bits/(Pixel*Frame)          : 0.108
    Stream size                 : 3.40 GiB (89%)
    Title                       : CinemaniaHDD.Net
    Language                    : English
    Default                     : Yes
    Forced                      : No
    Color range                 : Limited
    Color primaries             : BT.709
    Transfer characteristics    : BT.709
    Matrix coefficients         : BT.709

    Audio #1
    ID                          : 2
    Format                      : AC-3
    Format/Info                 : Audio Coding 3
    Commercial name             : Dolby Digital
    Codec ID                    : A_AC3
    Duration                    : 1 h 34 min
    Bit rate mode               : Constant
    Bit rate                    : 256 kb/s
    Channel(s)                  : 2 channels
    Channel layout              : L R
    Sampling rate               : 48.0 kHz
    Frame rate                  : 31.250 FPS (1536 SPF)
    Bit depth                   : 16 bits
    Compression mode            : Lossy
    Delay relative to video     : -42 ms
    Stream size                 : 172 MiB (4%)
    Title                       : Español latino [CinemaniaHDD]
    Language                    : Spanish
    Service kind                : Complete Main
    Default                     : Yes
    Forced                      : No

    Audio #2
    ID                          : 3
    Format                      : AC-3
    Format/Info                 : Audio Coding 3
    Commercial name             : Dolby Digital
    Codec ID                    : A_AC3
    Duration                    : 1 h 34 min
    Bit rate mode               : Constant
    Bit rate                    : 384 kb/s
    Channel(s)                  : 6 channels
    Channel layout              : L R C LFE Ls Rs
    Sampling rate               : 48.0 kHz
    Frame rate                  : 31.250 FPS (1536 SPF)
    Bit depth                   : 16 bits
    Compression mode            : Lossy
    Delay relative to video     : -42 ms
    Stream size                 : 258 MiB (7%)
    Title                       : Inglés [CinemaniaHDD]
    Language                    : English
    Service kind                : Complete Main
    Default                     : No
    Forced                      : No

    Menu
    00:00:00.000                : en:1
    00:09:15.208                : en:2
    00:18:23.124                : en:3
    00:24:32.832                : en:4
    00:33:48.414                : en:5
    00:40:15.789                : en:6
    00:48:16.330                : en:7
    00:56:13.121                : en:8
    01:03:51.037                : en:9
    01:11:48.287                : en:10
    01:26:22.328                : en:11
    01:29:18.328                : en:12

     

  • Peso: 3.82 GiB

Sinopsis

Speckles, un feroz tarbosaurio y su hijo menor, que lloran la pérdida de su familia en una batalla épica, deambulan por las tierras en busca de comida, aventura y paz. Bajo la atenta mirada de su padre, Junior está creciendo sano y fuerte, pero con un exceso de confianza gracias a su corta edad. Después de que un encuentro resulta en el secuestro de Junior, Speckles se embarca en una aventura hasta los confines de la tierra para encontrar a su hijo. Al encontrarse con amigos y enemigos, aliados y enemigos, Speckles no se detendrá ante nada y tomará todos los rincones para salvar a su descendencia.

Ficha técnica

  • Titulo original: 점박이 한반도의 공룡 2: 새로운 낙원
  • Fecha de lanzamiento: 25-12-2018 (South Korea)
  • Director: Han Sang-ho
  • Género: Animación, Aventura

Video trailer de la película

Enlaces de descarga

Rip de Bluray

Descargar Dino King: Journey to Fire Mountain (2019) WEB-DL 1080p Latino




Aportes de DPeliculasHDmega la pass es:dpeliculashdmega.org Aportes de CinemaniaHD la pass es:cinemaniahdd.com
Guardado en : Animación , Aventura

Películas relacionadas

descargar Dino King: Journey to Fire Mountain (2019) WEB-DL 1080p Latino WEBDL 1080p gratis, Dino King: Journey to Fire Mountain (2019) WEB-DL 1080p Latino WEBDL mega 1 link, Dino King: Journey to Fire Mountain (2019) WEB-DL 1080p Latino WEBDL pelicula completa, descargar Dino King: Journey to Fire Mountain (2019) WEB-DL 1080p Latino WEBDL gratis en mega.

Dino King: Journey to Fire Mountain (2019) WEB-DL 1080p Latino pelicula full hd, Dino King: Journey to Fire Mountain (2019) WEB-DL 1080p Latino mega latino, Dino King: Journey to Fire Mountain (2019) WEB-DL 1080p Latino 4k latino, Dino King: Journey to Fire Mountain (2019) WEB-DL 1080p Latino pelicula completa, Dino King: Journey to Fire Mountain (2019) WEB-DL 1080p Latino descargar gratis, descargar Dino King: Journey to Fire Mountain (2019) WEB-DL 1080p Latino pelicula latino, Dino King: Journey to Fire Mountain (2019) WEB-DL 1080p Latino 1 link mega, Dino King: Journey to Fire Mountain (2019) WEB-DL 1080p Latino 1 link google drive, Dino King: Journey to Fire Mountain (2019) WEB-DL 1080p Latino hd 1080p latino.
Comentarios 0